Keep the qualtiy of a low bit rate video

New Here ,
Apr 03, 2020 Apr 03, 2020

Copy link to clipboard

Copied

Hi everybody.

Recently I learned (thanks to you guys) how to export a video on Media Encoder and very low bitrate.

The problem is that the output video has nearly the same bitrate from source, but quality had declined a lot.

I can't seem to figure out how to keep the original quality.

I'll leave some screenshots:

 

Orginal video:

original.JPG

 

Formatted video:

formatted.JPG

 

And here's the details from the codec:

Original:
Format : MPEG-4
Format profile : Base Media / Version 2
Codec ID : mp42 (isom/mp42)
File size : 95.2 MiB
Duration : 1 h 4 min
Overall bit rate mode : Variable
Overall bit rate : 207 kb/s
Encoded date : UTC 2019-12-03 23:43:06
Tagged date : UTC 2019-12-03 23:43:06

Video
ID : 1
Format : AVC
Format/Info : Advanced Video Codec
Format profile : High@L5
Format settings : CABAC / 11 Ref Frames
Format settings, CABAC : Yes
Format settings, Reference frames : 11 frames
Codec ID : avc1
Codec ID/Info : Advanced Video Coding
Duration : 1 h 4 min
Bit rate : 151 kb/s
Width : 1 920 pixels
Height : 1 080 pixels
Display aspect ratio : 16:9
Frame rate mode : Constant
Frame rate : 25.000 FPS
Color space : YUV
Chroma subsampling : 4:2:0
Bit depth : 8 bits
Scan type : Progressive
Bits/(Pixel*Frame) : 0.003
Stream size : 69.6 MiB (73%)
Title : H.264/AVC video
Encoded date : UTC 2019-12-03 23:43:06
Tagged date : UTC 2019-12-03 23:43:06
Codec configuration box : avcC

 

Formatted:

Format : MPEG-4
Format profile : Base Media / Version 2
Codec ID : mp42 (mp42/mp41)
File size : 19.7 MiB
Duration : 6 min 42 s
Overall bit rate mode : Variable
Overall bit rate : 410 kb/s
Encoded date : UTC 2020-04-03 17:59:56
Tagged date : UTC 2020-04-03 18:11:29
TIM : 00:05:34:15
TSC : 25
TSZ : 1

Video
ID : 1
Format : AVC
Format/Info : Advanced Video Codec
Format profile : Main@L4.1
Format settings : CABAC / 4 Ref Frames
Format settings, CABAC : Yes
Format settings, Reference frames : 4 frames
Format settings, GOP : M=4, N=11
Codec ID : avc1
Codec ID/Info : Advanced Video Coding
Duration : 6 min 42 s
Bit rate : 249 kb/s
Width : 1 920 pixels
Height : 1 080 pixels
Display aspect ratio : 16:9
Frame rate mode : Constant
Frame rate : 25.000 FPS
Color space : YUV
Chroma subsampling : 4:2:0
Bit depth : 8 bits
Scan type : Progressive
Bits/(Pixel*Frame) : 0.005
Stream size : 11.9 MiB (61%)
Language : English
Encoded date : UTC 2020-04-03 17:59:58
Tagged date : UTC 2020-04-03 17:59:58
Color range : Limited
Color primaries : BT.709
Transfer characteristics : BT.709
Matrix coefficients : BT.709
Codec configuration box : avcC

TOPICS
Export or render, Formats, How to

Views

180

Likes

Translate

Translate

Report

Report
Community Guidelines
Be kind and respectful, give credit to the original source of content, and search for duplicates before posting. Learn more
community guidelines
no replies

Have something to add?

Join the conversation