Welcome Dialog

Welcome to the Community!

We have a brand new look! Take a tour with us and explore the latest updates on Adobe Support Community.


DJI Osmo Action footage issue

New Here ,
Jun 12, 2021 Jun 12, 2021

Copy link to clipboard

Copied

I upgraded from 2018 to 2021 yesterday to allow me to add footage from my newe GoPro Hero 5. I edited a video from the GoPro , everything worked well. However, when I imported footage from my DJI Osmo Action camera, its color shifted, lots of yellow,purple, etc overlayed on the footage in preview.

 

I went back to 2018, and the footage is fine. I tried turning off hardware acceleration after seeing apost about a similiar issue with Sony camera footage, no change.

TOPICS
Error or problem

Views

161

Likes

Translate

Translate

Report

Report
Community guidelines
Be kind and respectful, give credit to the original source of content, and search for duplicates before posting. Learn more
community guidelines
Adobe Community Professional ,
Jun 12, 2021 Jun 12, 2021

Copy link to clipboard

Copied

Open a clip from that Osmo in the free download MediaInfo. In MediaInfo, set View to Text and then copy the text of that report and paste it to this forum. Once we know the complete specs of that video we'll better be able to advise you.

Likes

Translate

Translate

Report

Report
Community guidelines
Be kind and respectful, give credit to the original source of content, and search for duplicates before posting. Learn more
community guidelines
New Here ,
Jun 12, 2021 Jun 12, 2021

Copy link to clipboard

Copied

Hello,

 

Thank you for the response. Just to check, I tried loading a GoPro Hero 7 file as well, same issue as the DJI.

 

General
Complete name : D:\Video\Motorcycle\052021 YT\DJI_0006.MP4
Format : MPEG-4
Format profile : JVT
Codec ID : avc1 (avc1/isom)
File size : 197 MiB
Duration : 16 s 333 ms
Overall bit rate mode : Variable
Overall bit rate : 101 Mb/s
Encoded date : UTC 2021-05-21 00:16:58
Tagged date : UTC 2021-05-21 00:16:58
Comment : DE=None, Type=Normal, HQ=Normal, RS=On, Mode=P

Video
ID : 1
Format : AVC
Format/Info : Advanced Video Codec
Format profile : High@L5.2
Format settings : CABAC / 1 Ref Frames
Format settings, CABAC : Yes
Format settings, Reference frames : 1 frame
Format settings, GOP : M=1, N=30
Codec ID : avc1
Codec ID/Info : Advanced Video Coding
Duration : 16 s 333 ms
Bit rate mode : Variable
Bit rate : 100.0 Mb/s
Width : 3 840 pixels
Height : 2 160 pixels
Display aspect ratio : 16:9
Frame rate mode : Constant
Frame rate : 59.940 (60000/1001) FPS
Color space : YUV
Chroma subsampling : 4:2:0
Bit depth : 8 bits
Scan type : Progressive
Bits/(Pixel*Frame) : 0.201
Stream size : 196 MiB (100%)
Title : DJI.AVC
Language : English
Encoded date : UTC 2021-05-21 00:16:58
Tagged date : UTC 2021-05-21 00:16:58
Color range : Limited
Color primaries : BT.709
Transfer characteristics : BT.709
Matrix coefficients : BT.709
Codec configuration box : avcC

Audio
ID : 2
Format : AAC LC
Format/Info : Advanced Audio Codec Low Complexity
Codec ID : mp4a-40-2
Duration : 16 s 299 ms
Bit rate mode : Constant
Bit rate : 192 kb/s
Channel(s) : 2 channels
Channel layout : L R
Sampling rate : 48.0 kHz
Frame rate : 46.875 FPS (1024 SPF)
Compression mode : Lossy
Stream size : 377 KiB (0%)
Title : DJI.AAC
Language : English
Encoded date : UTC 2021-05-21 00:16:58
Tagged date : UTC 2021-05-21 00:16:58

Likes

Translate

Translate

Report

Report
Community guidelines
Be kind and respectful, give credit to the original source of content, and search for duplicates before posting. Learn more
community guidelines
Adobe Community Professional ,
Jun 13, 2021 Jun 13, 2021

Copy link to clipboard

Copied

LATEST

I suspect the issue is that it's a 60 frames to second 4K video, which the program does not support well.

 

If you can change your camera's settings so that it records 30 fps, that will resolve your problem. 

 

Or you can convert the video to a 30 fps MP4 using the free download Handbrake.

 

Likes

Translate

Translate

Report

Report
Community guidelines
Be kind and respectful, give credit to the original source of content, and search for duplicates before posting. Learn more
community guidelines
Adobe Community Professional ,
Jun 12, 2021 Jun 12, 2021

Copy link to clipboard

Copied

Update your graphicscard driver.

Likes

Translate

Translate

Report

Report
Community guidelines
Be kind and respectful, give credit to the original source of content, and search for duplicates before posting. Learn more
community guidelines