• Global community
    • Language:
      • Deutsch
      • English
      • Español
      • Français
      • Português
  • 日本語コミュニティ
    Dedicated community for Japanese speakers
  • 한국 커뮤니티
    Dedicated community for Korean speakers
Exit
0

Video is blurry

New Here ,
Sep 07, 2020 Sep 07, 2020

Copy link to clipboard

Copied

My video is blurry when I pull it into the timeline. Even when I render everything it's still blurry. Though when I pull a text (can be empty) on top of it, it becomes sharp. This is very annoying and I would like to always have a sharp video.

TOPICS
Freeze or hang

Views

136

Translate

Translate

Report

Report
Community guidelines
Be kind and respectful, give credit to the original source of content, and search for duplicates before posting. Learn more
community guidelines
Community Expert ,
Sep 07, 2020 Sep 07, 2020

Copy link to clipboard

Copied

First go to the Edit menu and tell us what appears on the General page under Project Settings.

 

Then open your original video in the free download MediaInfo. In MediaInfo, set View to Text and then copy that text and paste it to this forum.


There are a number of reasons your video isn't appearing clear. We'll help you troubleshoot it, but we'll need this information to get started.

Votes

Translate

Translate

Report

Report
Community guidelines
Be kind and respectful, give credit to the original source of content, and search for duplicates before posting. Learn more
community guidelines
New Here ,
Sep 20, 2020 Sep 20, 2020

Copy link to clipboard

Copied

LATEST

General:

HD 1080i

29.97 frames/second

Video:1920x1080

square pixels

upper field first

30fps/ Drop-frame Timecode

20%, 20%

10%, 10%

Audio: 48000hz

Audio samples

 

Mediainfo:

General
Complete name : C:\Users\jolin\Google Drive\Joline\Films\beyond gender\Aufnahmen\26.8\Drohne\DJI_0002.MP4
Format : MPEG-4
Format profile : JVT
Codec ID : avc1 (avc1/isom)
File size : 117 MiB
Duration : 28 s 0 ms
Overall bit rate mode : Variable
Overall bit rate : 35.1 Mb/s
Encoded date : UTC 2020-08-26 08:23:25
Tagged date : UTC 2020-08-26 08:23:25
Comment : DE=None,SN=1SFLG7J0AK026G, Type=QuickShot, HQ=Normal, Mode=P
xyz : +47.3799+8.5379
xsp : +0.00
ysp : +0.00
zsp : +0.00
fpt : -13.10
fyw : -93.50
frl : -0.90
gpt : -18.30
gyw : +0.70
grl : +0.00

Video
ID : 1
Format : AVC
Format/Info : Advanced Video Codec
Format profile : High@L4
Format settings : CABAC / 1 Ref Frames
Format settings, CABAC : Yes
Format settings, Reference frames : 1 frame
Format settings, GOP : M=1, N=30
Codec ID : avc1
Codec ID/Info : Advanced Video Coding
Duration : 27 s 995 ms
Bit rate mode : Variable
Bit rate : 35.0 Mb/s
Width : 1 920 pixels
Height : 1 080 pixels
Display aspect ratio : 16:9
Frame rate mode : Constant
Frame rate : 29.970 (30000/1001) FPS
Color space : YUV
Chroma subsampling : 4:2:0
Bit depth : 8 bits
Scan type : Progressive
Bits/(Pixel*Frame) : 0.563
Stream size : 117 MiB (100%)
Title : DJI.AVC
Language : English
Encoded date : UTC 2020-08-26 08:23:25
Tagged date : UTC 2020-08-26 08:23:25
Color range : Limited
Color primaries : BT.709
Transfer characteristics : BT.709
Matrix coefficients : BT.709
Codec configuration box : avcC

Text
ID : 3
Duration : 28 s 0 ms
Bit rate mode : Constant
Bit rate : 2 048 b/s
Stream size : 7.00 KiB (0%)
Title : DJI.Subtitle
Language : English
Forced : No
Encoded date : UTC 2020-08-26 08:23:25
Tagged date : UTC 2020-08-26 08:23:25

Other
Type : meta
Bit rate mode : Variable
Default : No

 

Thank you for your help!

 

Votes

Translate

Translate

Report

Report
Community guidelines
Be kind and respectful, give credit to the original source of content, and search for duplicates before posting. Learn more
community guidelines
Community Expert ,
Sep 07, 2020 Sep 07, 2020

Copy link to clipboard

Copied

Need some help!  What version are you using?  What computer do you have?  What is the source of your video?  What are the project settings?  How did you create the project settings?   

Premiere Elements does not automatically make videos blurry!

Votes

Translate

Translate

Report

Report
Community guidelines
Be kind and respectful, give credit to the original source of content, and search for duplicates before posting. Learn more
community guidelines