• Global community
    • Language:
      • Deutsch
      • English
      • Español
      • Français
      • Português
  • 日本語コミュニティ
    Dedicated community for Japanese speakers
  • 한국 커뮤니티
    Dedicated community for Korean speakers
Exit
0

Why does premiere elements 2022 Not recognize a 2.73 GB clip I put in the timeline? Is the clip to b

New Here ,
May 20, 2023 May 20, 2023

Copy link to clipboard

Copied

Why does premiere elements 2022 Not recognize a 2.73 GB clip I put in the timeline? Is the clip to big? If I add text to that clip, the text is only recognized. Help.

TOPICS
Import

Views

242

Translate

Translate

Report

Report
Community guidelines
Be kind and respectful, give credit to the original source of content, and search for duplicates before posting. Learn more
community guidelines
Community Expert ,
May 20, 2023 May 20, 2023

Copy link to clipboard

Copied

The clip is not too big.  I do that regularly.  What is the clip structure and specifications?  Where did it come from?  

 

Premiere Elements rarely has trouble with common H.264 codec files in MP4 containers of any size.  Specialty footage from certain cell phones and action cameras using odd codecs or high frame rates may take some extra work. 

Votes

Translate

Translate

Report

Report
Community guidelines
Be kind and respectful, give credit to the original source of content, and search for duplicates before posting. Learn more
community guidelines
Community Expert ,
May 21, 2023 May 21, 2023

Copy link to clipboard

Copied

Per Bill, open the video clip in the free download MediaInfo. In MediaInfo, set View to Text and then copy the complete report of the video specs and paste it to this forum. With this detailed information we'll better be able to help you.

Votes

Translate

Translate

Report

Report
Community guidelines
Be kind and respectful, give credit to the original source of content, and search for duplicates before posting. Learn more
community guidelines
New Here ,
May 22, 2023 May 22, 2023

Copy link to clipboard

Copied

General
Complete name : C:\Users\Owner\Documents\Unity Day With Ukraine.mp4
Format : MPEG-4
Format profile : Base Media
Codec ID : isom (isom/iso2/avc1/mp41)
File size : 2.73 GiB
Duration : 52 min 0 s
Overall bit rate mode : Variable
Overall bit rate : 7 502 kb/s
Frame rate : 29.970 FPS
Writing application : Lavf59.27.100

Video
ID : 1
Format : AVC
Format/Info : Advanced Video Codec
Format profile : High@L4
Format settings : CABAC / 4 Ref Frames
Format settings, CABAC : Yes
Format settings, Reference frames : 4 frames
Codec ID : avc1
Codec ID/Info : Advanced Video Coding
Duration : 52 min 0 s
Bit rate mode : Variable
Bit rate : 7 238 kb/s
Maximum bit rate : 2 000 kb/s
Width : 1 920 pixels
Height : 1 080 pixels
Display aspect ratio : 16:9
Frame rate mode : Constant
Frame rate : 29.970 (30000/1001) FPS
Color space : YUV
Chroma subsampling : 4:2:0
Bit depth : 8 bits
Scan type : Progressive
Bits/(Pixel*Frame) : 0.116
Stream size : 2.63 GiB (96%)
Color range : Limited
Color primaries : BT.709
Transfer characteristics : BT.709
Matrix coefficients : BT.709
Codec configuration box : avcC

Audio
ID : 2
Format : AAC LC
Format/Info : Advanced Audio Codec Low Complexity
Codec ID : mp4a-40-2
Duration : 52 min 0 s
Source duration : 52 min 0 s
Bit rate mode : Constant
Bit rate : 256 kb/s
Channel(s) : 2 channels
Channel layout : L R
Sampling rate : 48.0 kHz
Frame rate : 46.875 FPS (1024 SPF)
Compression mode : Lossy
Stream size : 95.1 MiB (3%)
Source stream size : 95.1 MiB (3%)
Default : Yes
Alternate group : 1

Votes

Translate

Translate

Report

Report
Community guidelines
Be kind and respectful, give credit to the original source of content, and search for duplicates before posting. Learn more
community guidelines
Community Expert ,
May 22, 2023 May 22, 2023

Copy link to clipboard

Copied

Again please, where did the clip come from?  

Votes

Translate

Translate

Report

Report
Community guidelines
Be kind and respectful, give credit to the original source of content, and search for duplicates before posting. Learn more
community guidelines
Community Expert ,
May 22, 2023 May 22, 2023

Copy link to clipboard

Copied

>Codec ID : isom (isom/iso2/avc1/mp41)

 

I have never seen "isom" before, so see if https://handbrake.fr/ open source transcoder/converter will make a file you can edit

 

Handbrake tutorial https://www.youtube.com/watch?v=sSVarfrhr1M

Votes

Translate

Translate

Report

Report
Community guidelines
Be kind and respectful, give credit to the original source of content, and search for duplicates before posting. Learn more
community guidelines
New Here ,
May 22, 2023 May 22, 2023

Copy link to clipboard

Copied

Thank you very much. I have been very frustrated with this problem. I first edited this video in Shotcut. Then converted it to an MP4. I will try handbrake.

 

Votes

Translate

Translate

Report

Report
Community guidelines
Be kind and respectful, give credit to the original source of content, and search for duplicates before posting. Learn more
community guidelines
Community Expert ,
May 22, 2023 May 22, 2023

Copy link to clipboard

Copied

So far, I can't figure out why your video has such an odd codec being used.   Where did the video come from?  If it came from Shotcut, what output choices did you make?

Votes

Translate

Translate

Report

Report
Community guidelines
Be kind and respectful, give credit to the original source of content, and search for duplicates before posting. Learn more
community guidelines
New Here ,
May 22, 2023 May 22, 2023

Copy link to clipboard

Copied

Looks like I'm not doing something correct. Handbrake got my video from 2.73 GB to 1.81 GB. I moved the video to Premiere elements 2022 started a new project, added text in 2 places, save the video and it ended with 27.5 KB. It seemed like the 1.81 GB video wasn't recognized.

Votes

Translate

Translate

Report

Report
Community guidelines
Be kind and respectful, give credit to the original source of content, and search for duplicates before posting. Learn more
community guidelines
Community Expert ,
May 22, 2023 May 22, 2023

Copy link to clipboard

Copied

When you exported your timeline to a new video what export settings did you use?

Votes

Translate

Translate

Report

Report
Community guidelines
Be kind and respectful, give credit to the original source of content, and search for duplicates before posting. Learn more
community guidelines
Community Expert ,
May 22, 2023 May 22, 2023

Copy link to clipboard

Copied

This is my export screen for a recent project

 

MyExport.jpg

Votes

Translate

Translate

Report

Report
Community guidelines
Be kind and respectful, give credit to the original source of content, and search for duplicates before posting. Learn more
community guidelines
New Here ,
May 22, 2023 May 22, 2023

Copy link to clipboard

Copied

I dragged and dropped the video in the timeline from File Explorer. Used Auto Analyzer to check the video. It broke down the 15 or so different clips that add up to the complete video. I didn't like how the videos and photos were lined up. When I've been working on this video for about a month, on and off, I might just go with what I have.

Votes

Translate

Translate

Report

Report
Community guidelines
Be kind and respectful, give credit to the original source of content, and search for duplicates before posting. Learn more
community guidelines
New Here ,
May 23, 2023 May 23, 2023

Copy link to clipboard

Copied

LATEST

Thank you everyone for your input. Sometime us amatures need a helping hand. Keep up the good work. May the Adobe force be with you. 🙂

Votes

Translate

Translate

Report

Report
Community guidelines
Be kind and respectful, give credit to the original source of content, and search for duplicates before posting. Learn more
community guidelines