Highlighted

Adobe Premiere Elements 14 - exporting 4K but generating 500mb small file

New Here ,
Apr 08, 2018

Copy link to clipboard

Copied

Hi,

I haven't used Premiere much as bought to use Photoshop but lately GoPro Studio trial expired and I am back to other options thought I should give Premiere a test on combining clips.

I tried exporting with the following configuration, 4K 200mbps and file size 12GB see screenshot included.

For some reason Premiere is exporting a low quality 500-600mb file, including full 8 mins of video but not the 12GB file. A very low quality version that cannot be used anywhere.

Can anyone tell me what I am doing wrong and how I can fix this?

Thank you!

delete.jpg

Adobe Community Professional
Correct answer by Ann Bens | Adobe Community Professional

What does the bitrate say of the 2nd file?

Might want go into Custom and set up a custom export.

Views

337

Likes

Translate

Translate

Report

Report
Community Guidelines
Be kind and respectful, give credit to the original source of content, and search for duplicates before posting. Learn more

Adobe Premiere Elements 14 - exporting 4K but generating 500mb small file

New Here ,
Apr 08, 2018

Copy link to clipboard

Copied

Hi,

I haven't used Premiere much as bought to use Photoshop but lately GoPro Studio trial expired and I am back to other options thought I should give Premiere a test on combining clips.

I tried exporting with the following configuration, 4K 200mbps and file size 12GB see screenshot included.

For some reason Premiere is exporting a low quality 500-600mb file, including full 8 mins of video but not the 12GB file. A very low quality version that cannot be used anywhere.

Can anyone tell me what I am doing wrong and how I can fix this?

Thank you!

delete.jpg

Adobe Community Professional
Correct answer by Ann Bens | Adobe Community Professional

What does the bitrate say of the 2nd file?

Might want go into Custom and set up a custom export.

Views

338

Likes

Translate

Translate

Report

Report
Community Guidelines
Be kind and respectful, give credit to the original source of content, and search for duplicates before posting. Learn more
Apr 08, 2018 0
Adobe Community Professional ,
Apr 08, 2018

Copy link to clipboard

Copied

Moved from Premiere Pro CC​ to Premiere Elements

Likes

Translate

Translate

Report

Report
Community Guidelines
Be kind and respectful, give credit to the original source of content, and search for duplicates before posting. Learn more
Reply
Loading...
Apr 08, 2018 0
Adobe Community Professional ,
Apr 08, 2018

Copy link to clipboard

Copied

Set workarea bar over entire timeline and check it in the export settings.

Likes

Translate

Translate

Report

Report
Community Guidelines
Be kind and respectful, give credit to the original source of content, and search for duplicates before posting. Learn more
Reply
Loading...
Apr 08, 2018 0
New Here ,
Apr 08, 2018

Copy link to clipboard

Copied

Isn't this the Work Area Bar?

Seems to be on the required time length?

delete.jpg

Likes

Translate

Translate

Report

Report
Community Guidelines
Be kind and respectful, give credit to the original source of content, and search for duplicates before posting. Learn more
Reply
Loading...
Apr 08, 2018 0
Adobe Community Professional ,
Apr 08, 2018

Copy link to clipboard

Copied

Open clip in MediaInfo windows and post results in treeview here on forum.

Likes

Translate

Translate

Report

Report
Community Guidelines
Be kind and respectful, give credit to the original source of content, and search for duplicates before posting. Learn more
Reply
Loading...
Apr 08, 2018 0
New Here ,
Apr 08, 2018

Copy link to clipboard

Copied

General

Format                                   : MPEG-4

Codec ID                                 : M4V  (M4V /mp42/isom)

File size                                : 538 MiB

Duration                                 : 8 min 32 s

Overall bit rate mode                    : Variable

Overall bit rate                         : 8 812 kb/s

Encoded date                             : UTC 2018-04-08 17:31:51

Tagged date                              : UTC 2018-04-08 17:31:51

Video

ID                                       : 1

Format                                   : AVC

Format/Info                              : Advanced Video Codec

Format profile                           : High@L5.2

Format settings                          : CABAC / 2 Ref Frames

Format settings, CABAC                   : Yes

Format settings, RefFrames               : 2 frames

Format settings, GOP                     : M=3, N=59

Codec ID                                 : avc1

Codec ID/Info                            : Advanced Video Coding

Duration                                 : 8 min 32 s

Bit rate mode                            : Variable

Bit rate                                 : 8 648 kb/s

Maximum bit rate                         : 49.2 Mb/s

Width                                    : 3 840 pixels

Height                                   : 2 160 pixels

Display aspect ratio                     : 16:9

Frame rate mode                          : Constant

Frame rate                               : 59.940 (60000/1001) FPS

Color space                              : YUV

Chroma subsampling                       : 4:2:0

Bit depth                                : 8 bits

Scan type                                : Progressive

Bits/(Pixel*Frame)                       : 0.017

Stream size                              : 528 MiB (98%)

Language                                 : English

Encoded date                             : UTC 2018-04-08 17:31:51

Tagged date                              : UTC 2018-04-08 17:31:51

Audio

ID                                       : 2

Format                                   : AAC

Format/Info                              : Advanced Audio Codec

Format profile                           : LC

Codec ID                                 : mp4a-40-2

Duration                                 : 8 min 32 s

Source duration                          : 8 min 32 s

Bit rate mode                            : Variable

Bit rate                                 : 157 kb/s

Maximum bit rate                         : 231 kb/s

Channel(s)                               : 2 channels

Channel positions                        : Front: L R

Sampling rate                            : 48.0 kHz

Frame rate                               : 46.875 FPS (1024 SPF)

Compression mode                         : Lossy

Stream size                              : 9.61 MiB (2%)

Source stream size                       : 9.61 MiB (2%)

Language                                 : English

Encoded date                             : UTC 2018-04-08 17:31:52

Tagged date                              : UTC 2018-04-08 17:31:52

Likes

Translate

Translate

Report

Report
Community Guidelines
Be kind and respectful, give credit to the original source of content, and search for duplicates before posting. Learn more
Reply
Loading...
Apr 08, 2018 0
Adobe Community Professional ,
Apr 08, 2018

Copy link to clipboard

Copied

The file is so small as the bitrate is only 49.2 and not 200.

Likes

Translate

Translate

Report

Report
Community Guidelines
Be kind and respectful, give credit to the original source of content, and search for duplicates before posting. Learn more
Reply
Loading...
Apr 08, 2018 0
Adobe Community Professional ,
Apr 08, 2018

Copy link to clipboard

Copied

Why do you want 200 Mbps.

What Mb are the gopro avi's or rather the original?

Likes

Translate

Translate

Report

Report
Community Guidelines
Be kind and respectful, give credit to the original source of content, and search for duplicates before posting. Learn more
Reply
Loading...
Apr 08, 2018 0
New Here ,
Apr 08, 2018

Copy link to clipboard

Copied

Correct for some reason Premiere is rendering small file.

Original source is GoPro 5 Session camera, 2K footage, for 8 mins total source file size could be between 4-6GB.

I tried switching it to Med quality up to 6GB size but still producing 500mb file.

Likes

Translate

Translate

Report

Report
Community Guidelines
Be kind and respectful, give credit to the original source of content, and search for duplicates before posting. Learn more
Reply
Loading...
Apr 08, 2018 0
Adobe Community Professional ,
Apr 08, 2018

Copy link to clipboard

Copied

What does the bitrate say of the 2nd file?

Might want go into Custom and set up a custom export.

Likes

Translate

Translate

Report

Report
Community Guidelines
Be kind and respectful, give credit to the original source of content, and search for duplicates before posting. Learn more
Reply
Loading...
Apr 08, 2018 0
New Here ,
Apr 08, 2018

Copy link to clipboard

Copied

Below is the source file info from GoPro

General

Format                                   : MPEG-4

Codec ID                                 : M4V  (M4V /mp42/isom)

File size                                : 538 MiB

Duration                                 : 8 min 32 s

Overall bit rate mode                    : Variable

Overall bit rate                         : 8 812 kb/s

Encoded date                             : UTC 2018-04-08 17:31:51

Tagged date                              : UTC 2018-04-08 17:31:51

Video

ID                                       : 1

Format                                   : AVC

Format/Info                              : Advanced Video Codec

Format profile                           : High@L5.2

Format settings                          : CABAC / 2 Ref Frames

Format settings, CABAC                   : Yes

Format settings, RefFrames               : 2 frames

Format settings, GOP                     : M=3, N=59

Codec ID                                 : avc1

Codec ID/Info                            : Advanced Video Coding

Duration                                 : 8 min 32 s

Bit rate mode                            : Variable

Bit rate                                 : 8 648 kb/s

Maximum bit rate                         : 49.2 Mb/s

Width                                    : 3 840 pixels

Height                                   : 2 160 pixels

Display aspect ratio                     : 16:9

Frame rate mode                          : Constant

Frame rate                               : 59.940 (60000/1001) FPS

Color space                              : YUV

Chroma subsampling                       : 4:2:0

Bit depth                                : 8 bits

Scan type                                : Progressive

Bits/(Pixel*Frame)                       : 0.017

Stream size                              : 528 MiB (98%)

Language                                 : English

Encoded date                             : UTC 2018-04-08 17:31:51

Tagged date                              : UTC 2018-04-08 17:31:51

Audio

ID                                       : 2

Format                                   : AAC

Format/Info                              : Advanced Audio Codec

Format profile                           : LC

Codec ID                                 : mp4a-40-2

Duration                                 : 8 min 32 s

Source duration                          : 8 min 32 s

Bit rate mode                            : Variable

Bit rate                                 : 157 kb/s

Maximum bit rate                         : 231 kb/s

Channel(s)                               : 2 channels

Channel positions                        : Front: L R

Sampling rate                            : 48.0 kHz

Frame rate                               : 46.875 FPS (1024 SPF)

Compression mode                         : Lossy

Stream size                              : 9.61 MiB (2%)

Source stream size                       : 9.61 MiB (2%)

Language                                 : English

Encoded date                             : UTC 2018-04-08 17:31:52

Tagged date                              : UTC 2018-04-08 17:31:52

Likes

Translate

Translate

Report

Report
Community Guidelines
Be kind and respectful, give credit to the original source of content, and search for duplicates before posting. Learn more
Reply
Loading...
Apr 08, 2018 0
New Here ,
Apr 08, 2018

Copy link to clipboard

Copied

Any idea why it is not working with the standard approach, should be easy peasy?

I will update here on the Customer export results. Thanks.

Likes

Translate

Translate

Report

Report
Community Guidelines
Be kind and respectful, give credit to the original source of content, and search for duplicates before posting. Learn more
Reply
Loading...
Apr 08, 2018 0
Adobe Community Professional ,
Apr 09, 2018

Copy link to clipboard

Copied

This is Elements 14 I cannot test this anymore.

Likes

Translate

Translate

Report

Report
Community Guidelines
Be kind and respectful, give credit to the original source of content, and search for duplicates before posting. Learn more
Reply
Loading...
Apr 09, 2018 0