Highlighted

Audio effects are moving themselves

New Here ,
Jan 22, 2019

Copy link to clipboard

Copied

I am trying to apply audio effects to a clip in PE 2019. Two things are happening: whenever I stop then start play, the audio effect resets itself. Whenever I toggle the effect, it it starts moving the individual parameters by itself!! I can watch it moving the adjustments back and forth. What is going on? It did not do this before. Is this a setting, some automatic setting I can toggle off? This is super annoying to make adjustments then immediately lose them! Thanks in advance!

eam

Views

70

Likes

Translate

Translate

Report

Report
Community Guidelines
Be kind and respectful, give credit to the original source of content, and search for duplicates before posting. Learn more

Audio effects are moving themselves

New Here ,
Jan 22, 2019

Copy link to clipboard

Copied

I am trying to apply audio effects to a clip in PE 2019. Two things are happening: whenever I stop then start play, the audio effect resets itself. Whenever I toggle the effect, it it starts moving the individual parameters by itself!! I can watch it moving the adjustments back and forth. What is going on? It did not do this before. Is this a setting, some automatic setting I can toggle off? This is super annoying to make adjustments then immediately lose them! Thanks in advance!

eam

Views

71

Likes

Translate

Translate

Report

Report
Community Guidelines
Be kind and respectful, give credit to the original source of content, and search for duplicates before posting. Learn more
Jan 22, 2019 0
Adobe Community Professional ,
Jan 22, 2019

Copy link to clipboard

Copied

I've never heard of anything like this in 15 years of working this forum! What operating system are you on?

Does this happen if you add this effect to a WAV or MP3 file in your project?

Open your original video (the one this is happening to) in the free download MediaInfo. In MediaInfo, set View to Text and then copy and paste the report it generates to this forum.

We may or may not be able to figure this out by examining your media's specs, but it's a good start.

Likes

Translate

Translate

Report

Report
Community Guidelines
Be kind and respectful, give credit to the original source of content, and search for duplicates before posting. Learn more
Reply
Loading...
Jan 22, 2019 0
New Here ,
Jan 22, 2019

Copy link to clipboard

Copied

Steve,

Thank you for the reply. Here is the text info from MediaInfo. I agree, we may not be able to figure this out, but it is weird.

eneral

Complete name                            : C:\Users\Owner\Videos\LPDX Certification Event_8jan19\4.MP4

Format                                   : MPEG-4

Format profile                           : Base Media / Version 1

Codec ID                                 : mp41 (mp41)

File size                                : 3.73 GiB

Duration                                 : 8 min 52 s

Overall bit rate mode                    : Variable

Overall bit rate                         : 60.1 Mb/s

Encoded date                             : UTC 2019-01-07 03:53:57

Tagged date                              : UTC 2019-01-07 03:53:57

AMBA                                     :   x

Video

ID                                       : 1

Format                                   : AVC

Format/Info                              : Advanced Video Codec

Format profile                           : High@L5.1

Format settings                          : CABAC / 1 Ref Frames

Format settings, CABAC                   : Yes

Format settings, RefFrames               : 1 frame

Format settings, GOP                     : M=1, N=30

Codec ID                                 : avc1

Codec ID/Info                            : Advanced Video Coding

Duration                                 : 8 min 52 s

Bit rate mode                            : Variable

Bit rate                                 : 60.0 Mb/s

Width                                    : 2 704 pixels

Height                                   : 1 520 pixels

Display aspect ratio                     : 16:9

Frame rate mode                          : Constant

Frame rate                               : 59.940 (60000/1001) FPS

Color space                              : YUV

Chroma subsampling                       : 4:2:0

Bit depth                                : 8 bits

Scan type                                : Progressive

Bits/(Pixel*Frame)                       : 0.244

Stream size                              : 3.72 GiB (100%)

Title                                    : GoPro AVC

Language                                 : English

Encoded date                             : UTC 2019-01-07 03:53:57

Tagged date                              : UTC 2019-01-07 03:53:57

Color range                              : Full

Color primaries                          : BT.709

Transfer characteristics                 : BT.709

Matrix coefficients                      : BT.709

Codec configuration box                  : avcC

Audio

ID                                       : 2

Format                                   : AAC LC

Format/Info                              : Advanced Audio Codec Low Complexity

Codec ID                                 : mp4a-40-2

Duration                                 : 8 min 52 s

Bit rate mode                            : Constant

Bit rate                                 : 128 kb/s

Channel(s)                               : 2 channels

Channel layout                           : L R

Sampling rate                            : 48.0 kHz

Frame rate                               : 46.875 FPS (1024 SPF)

Compression mode                         : Lossy

Stream size                              : 8.13 MiB (0%)

Title                                    : GoPro AAC

Language                                 : English

Encoded date                             : UTC 2019-01-07 03:53:57

Tagged date                              : UTC 2019-01-07 03:53:57

Other #1

ID                                       : 3

Type                                     : Time code

Format                                   : QuickTime TC

Duration                                 : 8 min 52 s

Time code of first frame                 : 03:57:41:12

Time code, striped                       : Yes

Title                                    : GoPro TCD

Language                                 : English

Encoded date                             : UTC 2019-01-07 03:53:57

Tagged date                              : UTC 2019-01-07 03:53:57

Bit rate mode                            : CBR

Other #2

Type                                     : meta

Duration                                 : 4 min 26 s

Bit rate mode                            : CBR

Other #3

Type                                     : meta

mdhd_Duration                            : 532532

Bit rate mode                            : VBR

Likes

Translate

Translate

Report

Report
Community Guidelines
Be kind and respectful, give credit to the original source of content, and search for duplicates before posting. Learn more
Reply
Loading...
Jan 22, 2019 0
Adobe Community Professional ,
Jan 23, 2019

Copy link to clipboard

Copied

Well, the file has a very non-standard resolution (2704x1520), so the program is probably not assimilating it well. But beyond that I'm not seeing anything strange.

What are you results if you apply this effect to an MP3 or, better, a WAV file?

Likes

Translate

Translate

Report

Report
Community Guidelines
Be kind and respectful, give credit to the original source of content, and search for duplicates before posting. Learn more
Reply
Loading...
Jan 23, 2019 0