Highlighted

HEVC in AP2021

Explorer ,
Oct 08, 2020

Copy link to clipboard

Copied

Have they improved handling of HEVC files in AP2021?

I have serious issues with HEVC files from GoPro in AP2020 including:

 

I’ll try to install trial version but it might behave differently to full version due to lack of GPU acceleration.

TOPICS
Error or problem, Performance

Views

78

Likes

Translate

Translate

Report

Report
Community Guidelines
Be kind and respectful, give credit to the original source of content, and search for duplicates before posting. Learn more

HEVC in AP2021

Explorer ,
Oct 08, 2020

Copy link to clipboard

Copied

Have they improved handling of HEVC files in AP2021?

I have serious issues with HEVC files from GoPro in AP2020 including:

 

I’ll try to install trial version but it might behave differently to full version due to lack of GPU acceleration.

TOPICS
Error or problem, Performance

Views

79

Likes

Translate

Translate

Report

Report
Community Guidelines
Be kind and respectful, give credit to the original source of content, and search for duplicates before posting. Learn more
Oct 08, 2020 0
Explorer ,
Oct 08, 2020

Copy link to clipboard

Copied

Likes

Translate

Translate

Report

Report
Community Guidelines
Be kind and respectful, give credit to the original source of content, and search for duplicates before posting. Learn more
Reply
Loading...
Oct 08, 2020 0
Explorer ,
Oct 08, 2020

Copy link to clipboard

Copied

I’ve just downloaded trial version of AP2021 and checked it with HEVC files from GoPro. The same problems which I described above occurred for AP2021

 

 

1. Problem with 2.7k video: https://youtu.be/Pf-2ueqO5lQ

2. Problem with cross dissolve and film dissolve transition

3. Problem with high frame rate (slow motion) files: https://youtu.be/YTO_wRZdsUs

 

 

I want to point out that those problems don’t occur with H264 files.

 

I don’t know if activation of GPU acceleration can help here. I don’t want to spend 80 euro just to test it.

 

 

Enjoy the videos and music you love, upload original content, and share it all with friends, family, and the world on YouTube.
Enjoy the videos and music you love, upload original content, and share it all with friends, family, and the world on YouTube.

Likes

Translate

Translate

Report

Report
Community Guidelines
Be kind and respectful, give credit to the original source of content, and search for duplicates before posting. Learn more
Reply
Loading...
Oct 08, 2020 0
Adobe Employee ,
Oct 10, 2020

Copy link to clipboard

Copied

Hi @Tomek398_1,

The handling of HEVC files have been improved in PRE 2021. Although, the PRE does not support 120 FPS files (maximum FPS supported by Premiere Elements is 60 FPS).

 

That's one of the reason why you are still facing the issue with GoPro media. Let me know if you are facing issue with 60 FPS files as well. Also, would be helpful if you can share the device and media details. If possible, please share one sample video.

 

Thanks,

Anubhav

 

Likes

Translate

Translate

Report

Report
Community Guidelines
Be kind and respectful, give credit to the original source of content, and search for duplicates before posting. Learn more
Reply
Loading...
Oct 10, 2020 0
Explorer ,
Oct 12, 2020

Copy link to clipboard

Copied

>> Although, the PRE does not support 120 FPS files (maximum FPS supported by Premiere Elements is 60 FPS).

 

I can't agree. I use PRE with 120FPS files (both H264 and HEVC) and 240fps (H264 only). I have problem with 240fps HEVC. Initially PRE can play them but it quickly freezes after some short time. 

 

There are also issues with 2.7K 60fps files from GoPro. As I and others wrote before they look scrambled. See my first post. 

Clearing the media cache didn't help

 

Here is media info for 240 fps HEVC file:

 

Format                                   : MPEG-4
Format profile                           : Base Media / Version 1
Codec ID                                 : mp41 (mp41)
File size                                : 873 MiB
Duration                                 : 1 min 33 s
Overall bit rate                         : 78.7 Mb/s
Encoded date                             : UTC 2016-01-16 22:50:47
Tagged date                              : UTC 2016-01-16 22:50:47

Video
ID                                       : 1
Format                                   : HEVC
Format/Info                              : High Efficiency Video Coding
Format profile                           : Main@L6@Main
Codec ID                                 : hvc1
Codec ID/Info                            : High Efficiency Video Coding
Duration                                 : 1 min 33 s
Bit rate                                 : 78.4 Mb/s
Width                                    : 1 920 pixels
Height                                   : 1 080 pixels
Display aspect ratio                     : 16:9
Frame rate mode                          : Constant
Frame rate                               : 239.760 (240000/1001) FPS
Color space                              : YUV
Chroma subsampling                       : 4:2:0
Bit depth                                : 8 bits
Bits/(Pixel*Frame)                       : 0.158
Stream size                              : 870 MiB (100%)
Title                                    : GoPro H.265
Language                                 : English
Encoded date                             : UTC 2016-01-16 22:50:47
Tagged date                              : UTC 2016-01-16 22:50:47
Color range                              : Full
Color primaries                          : BT.709
Transfer characteristics                 : BT.709
Matrix coefficients                      : BT.709
Codec configuration box                  : hvcC

Audio
ID                                       : 2
Format                                   : AAC LC
Format/Info                              : Advanced Audio Codec Low Complexity
Codec ID                                 : mp4a-40-2
Duration                                 : 1 min 33 s
Bit rate mode                            : Constant
Bit rate                                 : 192 kb/s
Nominal bit rate                         : 48.0 kb/s
Channel(s)                               : 2 channels
Channel layout                           : L R
Sampling rate                            : 48.0 kHz
Frame rate                               : 46.875 FPS (1024 SPF)
Compression mode                         : Lossy
Stream size                              : 2.10 MiB (0%)
Title                                    : GoPro AAC  
Language                                 : English
Encoded date                             : UTC 2016-01-16 22:50:47
Tagged date                              : UTC 2016-01-16 22:50:47

Other #1
ID                                       : 3
Type                                     : Time code
Format                                   : QuickTime TC
Duration                                 : 1 min 33 s
Bit rate mode                            : Constant
Frame rate                               : 239.760 (240000/1001) FPS
Time code of first frame                 : 02:58:18:?3
Time code, striped                       : Yes
Title                                    : GoPro TCD  
Language                                 : English
Encoded date                             : UTC 2016-01-16 22:50:47
Tagged date                              : UTC 2016-01-16 22:50:47

Other #2
Type                                     : meta
Duration                                 : 1 min 33 s
Bit rate mode                            : Variable
Duration_LastFrame                       : -38

Other #3
Type                                     : meta
Bit rate mode                            : Variable
mdhd_Duration                            : 93060

 

 

 

Likes

Translate

Translate

Report

Report
Community Guidelines
Be kind and respectful, give credit to the original source of content, and search for duplicates before posting. Learn more
Reply
Loading...
Oct 12, 2020 0
Adobe Employee ,
Oct 10, 2020

Copy link to clipboard

Copied

@Tomek398_1 

Also, you can try clearing the media cache and they try importing the files again in Adobe Premiere Elements 2021, this might resolve the issue. To clear the media cache files:

  1. Close Adobe Premiere Elements 2021.
  2. Press WIN + R.
  3. Type %appdata%\Adobe\common and press Enter.
  4. Delete all the folders present here.
  5. Open Adobe Premiere Elements 2021 and import the files.

 

Let me know if this was helpful.

 

Thanks,

Anubhav

Likes

Translate

Translate

Report

Report
Community Guidelines
Be kind and respectful, give credit to the original source of content, and search for duplicates before posting. Learn more
Reply
Loading...
Oct 10, 2020 0