Highlighted

No sound with VOB video file PE V2019 Win 10

New Here ,
Oct 11, 2019

Copy link to clipboard

Copied

Hi,

I have a DVD video that was created from an 8mm Sony camcorder. I have copied the VOB video file from the DVD onto my computer's hard drive and then opened the video in PE. The video works, however there is no sound. The audio track appears to be empty. I have tried converting the video to mp4, avi etc and nothing seems to work. The video and audio work fine on the TV from a memory stick. Is there an easy solution to fix this problem. Any suggestion would be appreciated.

Thanks

Views

117

Likes

Translate

Translate

Report

Report
Community Guidelines
Be kind and respectful, give credit to the original source of content, and search for duplicates before posting. Learn more

No sound with VOB video file PE V2019 Win 10

New Here ,
Oct 11, 2019

Copy link to clipboard

Copied

Hi,

I have a DVD video that was created from an 8mm Sony camcorder. I have copied the VOB video file from the DVD onto my computer's hard drive and then opened the video in PE. The video works, however there is no sound. The audio track appears to be empty. I have tried converting the video to mp4, avi etc and nothing seems to work. The video and audio work fine on the TV from a memory stick. Is there an easy solution to fix this problem. Any suggestion would be appreciated.

Thanks

Views

118

Likes

Translate

Translate

Report

Report
Community Guidelines
Be kind and respectful, give credit to the original source of content, and search for duplicates before posting. Learn more
Oct 11, 2019 0
Adobe Community Professional ,
Oct 12, 2019

Copy link to clipboard

Copied

Which version of Premiere Elements are you editing with?

Open one of the VOB files from this disc in the free download MediaInfo. In MediaInfo, set View to Text and then copy the report that is generated and paste it to this forum.

There's good chance your VOB uses a sound format (AC3 for instance) that is no longer supported by Premiere Elements.

Likes

Translate

Translate

Report

Report
Community Guidelines
Be kind and respectful, give credit to the original source of content, and search for duplicates before posting. Learn more
Reply
Loading...
Oct 12, 2019 0
New Here ,
Oct 12, 2019

Copy link to clipboard

Copied

Hi

Likes

Translate

Translate

Report

Report
Community Guidelines
Be kind and respectful, give credit to the original source of content, and search for duplicates before posting. Learn more
Reply
Loading...
Oct 12, 2019 0
New Here ,
Oct 12, 2019

Copy link to clipboard

Copied

I am using Premiere Elements 2019

Likes

Translate

Translate

Report

Report
Community Guidelines
Be kind and respectful, give credit to the original source of content, and search for duplicates before posting. Learn more
Reply
Loading...
Oct 12, 2019 0
New Here ,
Oct 12, 2019

Copy link to clipboard

Copied

Here is the Text file from MediainfoGeneral Complete name : C:\Users\jnation\Videos\SONY_DVD_RECORDER_VOLUME\VIDEO_TS\VTS_01_5.VOB Format : MPEG-PS File size : 298 MiB Duration : 13 s 128 ms Overall bit rate mode : Variable Overall bit rate : 190 Mb/s Video ID : 224 (0xE0) Format : MPEG Video Format version : Version 2 Format profile : Main@Main Format settings : CustomMatrix / BVOP Format settings, BVOP : Yes Format settings, Matrix : Custom Format settings, GOP : Variable Format settings, picture structure : Frame Duration : 12 s 946 ms Bit rate mode : Variable Bit rate : 186 Mb/s Maximum bit rate : 9 600 kb/s Width : 720 pixels Height : 480 pixels Display aspect ratio : 4:3 Frame rate : 29.970 (30000/1001) FPS Standard : NTSC Color space : YUV Chroma subsampling : 4:2:0 Bit depth : 8 bits Scan type : Interlaced Scan order : Top Field First Compression mode : Lossy Bits/(Pixel*Frame) : 17.994 Time code of first frame : 01:55:38:00 Time code source : Group of pictures header GOP, Open/Closed : Open Stream size : 288 MiB (97%) Audio ID : 189 (0xBD)-128 (0x80) Format : AC-3 Format/Info : Audio Coding 3 Commercial name : Dolby Digital Muxing mode : DVD-Video Duration : 13 s 128 ms Bit rate mode : Constant Bit rate : 256 kb/s Channel(s) : 2 channels Channel layout : L R Sampling rate : 48.0 kHz Frame rate : 31.250 FPS (1536 SPF) Compression mode : Lossy Delay relative to video : -102 ms Stream size : 410 KiB (0%) Service kind : Complete Main Menu

Likes

Translate

Translate

Report

Report
Community Guidelines
Be kind and respectful, give credit to the original source of content, and search for duplicates before posting. Learn more
Reply
Loading...
Oct 12, 2019 0
Adobe Community Professional ,
Oct 12, 2019

Copy link to clipboard

Copied

AC3 should not be a problem on W10.

 

Likes

Translate

Translate

Report

Report
Community Guidelines
Be kind and respectful, give credit to the original source of content, and search for duplicates before posting. Learn more
Reply
Loading...
Oct 12, 2019 0
jnation LATEST
New Here ,
Oct 12, 2019

Copy link to clipboard

Copied

Sorry, messed up with the reply.

Thanks for your help

Likes

Translate

Translate

Report

Report
Community Guidelines
Be kind and respectful, give credit to the original source of content, and search for duplicates before posting. Learn more
Reply
Loading...
Oct 12, 2019 0