Premiere Elements 2020 wrong clip duration

New Here ,
Mar 15, 2020 Mar 15, 2020

Copy link to clipboard

Copied

I'm having multiple problems with Premiere 2020. One of the serious one that makes it unusable is that it is importing video clips with shorter file duration.

 

For example, I have a .MOV file shot with iPhone 11 (1080p@60fps, HEVC) that has a duration of 29s 787ms - media info down below.

 

However, when importing this clip to Premiere Elements 2020, the clip is imported with the duration of 3s57ms (screenshot below).

 

I tried everything, nothing works. It is a serious Premiere 2020 bug. I imported the same clip in Filmora 9 and it works flawlessly.

 

Any advice about how to solve this issue is much appreciated (the version I'm using is Premiere Elements 2020 Version 18.0 (20200130.daily.2070236).

 

Thanks.

 

 

 

General
Complete name                            : F:\Video Editing\Alemanha\Originais\20200125\20200125_181940_1080p60.MOV
Format                                   : MPEG-4
Format profile                           : QuickTime
Codec ID                                 : qt   0000.00 (qt  )
File size                                : 43.4 MiB
Duration                                 : 29 s 787 ms
Overall bit rate mode                    : Variable
Overall bit rate                         : 12.2 Mb/s
Encoded date                             : UTC 2020-01-25 17:19:40
Tagged date                              : UTC 2020-01-25 17:20:10
Writing library                          : Apple QuickTime
com.apple.quicktime.make                 : Apple
com.apple.quicktime.model                : iPhone 11
com.apple.quicktime.software             : 13.3
com.apple.quicktime.creationdate         : 2020-01-25T14:19:39-0300

Video
ID                                       : 1
Format                                   : HEVC
Format/Info                              : High Efficiency Video Coding
Format profile                           : Main@L4.1@Main
Codec ID                                 : hvc1
Codec ID/Info                            : High Efficiency Video Coding
Duration                                 : 29 s 787 ms
Bit rate                                 : 11.9 Mb/s
Width                                    : 1 920 pixels
Height                                   : 1 080 pixels
Display aspect ratio                     : 16:9
Frame rate mode                          : Variable
Frame rate                               : 59.940 (59940/1000) FPS
Minimum frame rate                       : 54.545 FPS
Maximum frame rate                       : 60.000 FPS
Color space                              : YUV
Chroma subsampling                       : 4:2:0
Bit depth                                : 8 bits
Bits/(Pixel*Frame)                       : 0.096
Stream size                              : 42.4 MiB (98%)
Title                                    : Core Media Video
Encoded date                             : UTC 2020-01-25 17:19:40
Tagged date                              : UTC 2020-01-25 17:20:10
Color range                              : Limited
Color primaries                          : BT.709
Transfer characteristics                 : BT.709
Matrix coefficients                      : BT.709
Codec configuration box                  : hvcC

Audio
ID                                       : 2
Format                                   : AAC LC
Format/Info                              : Advanced Audio Codec Low Complexity
Codec ID                                 : mp4a-40-2
Duration                                 : 29 s 787 ms
Source duration                          : 29 s 838 ms
Bit rate mode                            : Variable
Bit rate                                 : 187 kb/s
Channel(s)                               : 2 channels
Channel layout                           : L R
Sampling rate                            : 44.1 kHz
Frame rate                               : 43.066 FPS (1024 SPF)
Compression mode                         : Lossy
Stream size                              : 678 KiB (2%)
Source stream size                       : 679 KiB (2%)
Title                                    : Core Media Audio
Encoded date                             : UTC 2020-01-25 17:19:40
Tagged date                              : UTC 2020-01-25 17:20:10

Other #1
Type                                     : meta
Duration                                 : 29 s 787 ms
Bit rate mode                            : Variable

Other #2
Type                                     : meta
Duration                                 : 29 s 787 ms
Bit rate mode                            : Constant

Other #3
Type                                     : meta
Duration                                 : 29 s 787 ms
Bit rate mode                            : Variable

 

 

 

 
TOPICS
Error or problem

Views

211

Likes

Translate

Translate

Report

Report
Community Guidelines
Be kind and respectful, give credit to the original source of content, and search for duplicates before posting. Learn more
community guidelines
Adobe Community Professional ,
Mar 17, 2020 Mar 17, 2020

Copy link to clipboard

Copied

LATEST

The file is variable frame rate.
Use Hand brake to convert to constant frame rate before importing into Premiere Elements:
https://handbrake.fr/downloads.php
Here is a tutorial:
https://www.youtube.com/watch?time_continue=34&v=xlvxgVREX-Y

Likes

Translate

Translate

Report

Report
Community Guidelines
Be kind and respectful, give credit to the original source of content, and search for duplicates before posting. Learn more
community guidelines