Import of HD AVI, fieldsettings wrong (progressive instead Upper field)

0 Votes
New Here ,
Jan 17, 2022 Jan 17, 2022

Copy link to clipboard

Copied

When you capture an AVI file within Premiere capture via Black Magic card with presets

- Black Magic HD mpeg 1080i50

- Black Magic Uncompressed 8/10 bit 422

AVI is imported a progressive!

 

This also happens with these AVI OpenDML formats (MediaInfo)  (HD MJPEG 1080i50 Upper)

Format : AVI
Format/Info : Audio Video Interleave
Format profile : OpenDML
File size : 1.34 GiB
Duration : 4 min 58 s
Overall bit rate : 38.7 Mb/s

Video
ID : 0
Format : JPEG
Codec ID : MJPG
Duration : 4 min 58 s
Bit rate : 37.0 Mb/s
Width : 1 920 pixels
Height : 1 080 pixels
Display aspect ratio : 16:9
Frame rate : 25.000 FPS
Color space : YUV
Chroma subsampling : 4:2:2
Bit depth : 8 bits
Scan type : Interlaced
Scan order : Top Field First
Compression mode : Lossy
Bits/(Pixel*Frame) : 0.713
Stream size : 1.29 GiB (96%)

Audio
ID : 1
Format : PCM
Format settings : Little / Signed
Codec ID : 1
Duration : 4 min 58 s
Bit rate mode : Constant
Bit rate : 1 536 kb/s
Channel(s) : 2 channels
Sampling rate : 48.0 kHz
Bit depth : 16 bits
Stream size : 54.7 MiB (4%)
Alignment : Aligned on interleaves
Interleave, duration : 40 ms (1.00 video frame)
Interleave, preload duration : 40 ms

 

If you render a AVI file with these codecs it imports ok.

 

100% reproduced

With al Premiere Versions sinds 2019

 

Bug Unresolved

Views

17

Translate

Translate

Report

Report
Community guidelines
Be kind and respectful, give credit to the original source of content, and search for duplicates before posting. Learn more
community guidelines
no replies

Have something to add?

Join the conversation
Resources