• Global community
    • Language:
      • Deutsch
      • English
      • Español
      • Français
      • Português
  • 日本語コミュニティ
    Dedicated community for Japanese speakers
  • 한국 커뮤니티
    Dedicated community for Korean speakers
Exit
1

[23.5.0 (56)] Out-of-sync audio and video in MTS files

Community Beginner ,
Jul 12, 2023 Jul 12, 2023

Copy link to clipboard

Copied

It is clearly visible on the segment after 00:03:00:10  https://disk.yandex.ru/i/Nj94WwNrXbc0KQ

Bug Unresolved
TOPICS
Editing and playback , Sound

Views

57

Translate

Translate

Report

Report
Community guidelines
Be kind and respectful, give credit to the original source of content, and search for duplicates before posting. Learn more
community guidelines
2 Comments
Community Beginner ,
Jul 12, 2023 Jul 12, 2023

Copy link to clipboard

Copied

General
ID : 0 (0x0)
Complete name : E:\00072.MTS
Format : BDAV
Format/Info : Blu-ray Video
File size : 1,98 Гбайт
Duration : 10 м. 39 с.
Overall bit rate mode : Переменный
Overall bit rate : 26,6 Мбит/сек
Maximum Overall bit rate : 28,0 Мбит/сек
Frame rate : 50,000 кадров/сек
Recorded date : 2022-05-22 18:25:46+04:00
Writing application : Sony HDR-CX730E

 

Video
ID : 4113 (0x1011)
Menu ID : 1 (0x1)
Format : AVC
Format/Info : Advanced Video Codec
Format profile : High@L4.2
Format settings : CABAC / 2 Ref Frames
Format settings, CABAC : Да
Format settings, Reference frames : 2 кадра
Format settings, GOP : M=1, N=12
Codec ID : 27
Duration : 10 м. 39 с.
Bit rate mode : Переменный
Bit rate : 25,3 Мбит/сек
Maximum bit rate : 26,0 Мбит/сек
Width : 1 920 пикселей
Height : 1 080 пикселей
Display aspect ratio : 16:9
Frame rate : 50,000 кадров/сек
Color space : YUV
Chroma subsampling : 4:2:0
Bit depth : 8 бит
Scan type : Прогрессивная
Bits/(Pixel*Frame) : 0.244
Stream size : 1,88 Гбайт (95%)
IrisFNumber : 1.800000

 

Audio
ID : 4352 (0x1100)
Menu ID : 1 (0x1)
Format : AC-3
Format/Info : Audio Coding 3
Commercial name : Dolby Digital
Codec ID : 129
Duration : 10 м. 39 с.
Bit rate mode : Постоянный
Bit rate : 256 Кбит/сек
Channel(s) : 2 канала
Channel layout : L R
Sampling rate : 48,0 КГц
Frame rate : 31,250 кадров/сек (1536 SPF)
Compression mode : С потерями
Delay relative to video : -512 мс.
Stream size : 19,5 Мбайт (1%)
Service kind : Complete Main

 

Text
ID : 4608 (0x1200)
Menu ID : 1 (0x1)
Format : PGS
Codec ID : 144
Duration : 10 м. 39 с.

Votes

Translate

Translate

Report

Report
Community Expert ,
Jul 12, 2023 Jul 12, 2023

Copy link to clipboard

Copied

LATEST

I just watch your clip and its not out of sync. Plays perfectly.

Votes

Translate

Translate

Report

Report