Highlighted

AVI Audio not importing correctly - badly muffled with distortion

Community Beginner ,
Sep 28, 2020

Copy link to clipboard

Copied

Hi,

 

Searched forum and guessing this will be a known compatibility issue.

I want to re-import audio, after editing the original footage in an exported tiff sequence.

The audio will be re-imported and saved with Aftercodecs in mp4 265 format.

 

Do I need to convert audio into another format?

What format and what should I use?

 

General
Complete name : C:\Interview.avi
Format : AVI
Format/Info : Audio Video Interleave
File size : 7.08 MiB
Duration : 1 min 0 s
Overall bit rate : 990 kb/s

Video
ID : 0
Format : MPEG-4 Visual
Format settings : BVOP1
Format settings, BVOP : 1
Format settings, QPel : No
Format settings, GMC : No warppoints
Format settings, Matrix : Default (H.263)
Muxing mode : Packed bitstream
Codec ID : DX50
Codec ID/Hint : DivX 5
Duration : 1 min 0 s
Bit rate : 970 kb/s
Nominal bit rate : 4 000 kb/s
Width : 640 pixels
Height : 480 pixels
Display aspect ratio : 4:3
Frame rate : 29.970 (30000/1001) FPS
Color space : YUV
Chroma subsampling : 4:2:0
Bit depth : 8 bits
Scan type : Progressive
Compression mode : Lossy
Bits/(Pixel*Frame) : 0.105
Stream size : 6.94 MiB (98%)
Writing library : DivX 5.0.3 (UTC 2003-01-24)

Audio
ID : 1
Format : GSM 6.10
Codec ID : 31
Codec ID/Hint : Microsoft
Duration : 1 min 0 s
Bit rate : 13.0 kb/s
Channel(s) : 1 channel
Sampling rate : 8 000 Hz
Stream size : 95.2 KiB (1%)
Interleave, duration : 953 ms (28.56 video frames)
Interleave, preload duration : 960 ms

TOPICS
Audio, Editing, Export, Formats, How to, Import

Views

96

Likes

Translate

Translate

Report

Report
Community Guidelines
Be kind and respectful, give credit to the original source of content, and search for duplicates before posting. Learn more

AVI Audio not importing correctly - badly muffled with distortion

Community Beginner ,
Sep 28, 2020

Copy link to clipboard

Copied

Hi,

 

Searched forum and guessing this will be a known compatibility issue.

I want to re-import audio, after editing the original footage in an exported tiff sequence.

The audio will be re-imported and saved with Aftercodecs in mp4 265 format.

 

Do I need to convert audio into another format?

What format and what should I use?

 

General
Complete name : C:\Interview.avi
Format : AVI
Format/Info : Audio Video Interleave
File size : 7.08 MiB
Duration : 1 min 0 s
Overall bit rate : 990 kb/s

Video
ID : 0
Format : MPEG-4 Visual
Format settings : BVOP1
Format settings, BVOP : 1
Format settings, QPel : No
Format settings, GMC : No warppoints
Format settings, Matrix : Default (H.263)
Muxing mode : Packed bitstream
Codec ID : DX50
Codec ID/Hint : DivX 5
Duration : 1 min 0 s
Bit rate : 970 kb/s
Nominal bit rate : 4 000 kb/s
Width : 640 pixels
Height : 480 pixels
Display aspect ratio : 4:3
Frame rate : 29.970 (30000/1001) FPS
Color space : YUV
Chroma subsampling : 4:2:0
Bit depth : 8 bits
Scan type : Progressive
Compression mode : Lossy
Bits/(Pixel*Frame) : 0.105
Stream size : 6.94 MiB (98%)
Writing library : DivX 5.0.3 (UTC 2003-01-24)

Audio
ID : 1
Format : GSM 6.10
Codec ID : 31
Codec ID/Hint : Microsoft
Duration : 1 min 0 s
Bit rate : 13.0 kb/s
Channel(s) : 1 channel
Sampling rate : 8 000 Hz
Stream size : 95.2 KiB (1%)
Interleave, duration : 953 ms (28.56 video frames)
Interleave, preload duration : 960 ms

TOPICS
Audio, Editing, Export, Formats, How to, Import

Views

97

Likes

Translate

Translate

Report

Report
Community Guidelines
Be kind and respectful, give credit to the original source of content, and search for duplicates before posting. Learn more
Sep 28, 2020 0
Adobe Community Professional ,
Sep 28, 2020

Copy link to clipboard

Copied

Premiere does not support divx or gsm?

Convert to editable format before bringing it into Premiere.

Likes

Translate

Translate

Report

Report
Community Guidelines
Be kind and respectful, give credit to the original source of content, and search for duplicates before posting. Learn more
Reply
Loading...
Sep 28, 2020 0
Community Beginner ,
Sep 28, 2020

Copy link to clipboard

Copied

Handbreak?

Can I just convert the audio without changing video, so I can re-import to add with the final tiff sequence.

What would be a good format to match well with mp4 265 final?

 

Thanks

Likes

Translate

Translate

Report

Report
Community Guidelines
Be kind and respectful, give credit to the original source of content, and search for duplicates before posting. Learn more
Reply
Loading...
Sep 28, 2020 0
Community Beginner ,
Sep 28, 2020

Copy link to clipboard

Copied

I have already exported tiff sequence, so converting the original video with audio is no issue.

Just re-import the video after sequence, and clear original footage.

The only question is the best format for my purpose, if it matters?

 

Thanks

Likes

Translate

Translate

Report

Report
Community Guidelines
Be kind and respectful, give credit to the original source of content, and search for duplicates before posting. Learn more
Reply
Loading...
Sep 28, 2020 0
Community Beginner ,
Sep 28, 2020

Copy link to clipboard

Copied

I am going to convert to wave with audacity.

Doing so under assumption that audio will be reformatted into mp4 265 with the same end size efficiency, regardless of starting format and size. This could be wrong.

 

Please let me know if you can add to this.

Thanks

Likes

Translate

Translate

Report

Report
Community Guidelines
Be kind and respectful, give credit to the original source of content, and search for duplicates before posting. Learn more
Reply
Loading...
Sep 28, 2020 0
Ann Bens LATEST
Adobe Community Professional ,
Sep 28, 2020

Copy link to clipboard

Copied

Wave is the way to go.

Likes

Translate

Translate

Report

Report
Community Guidelines
Be kind and respectful, give credit to the original source of content, and search for duplicates before posting. Learn more
Reply
Loading...
Sep 28, 2020 1