Highlighted

How to import a media .TSV files?

New Here ,
Aug 18, 2020

Copy link to clipboard

Copied

Hi, sorry for my bad english, i have this problem:

My TV decoder PVR, record and generate these files:

1) Playlist.PLT

2) Name channel File video.TSV

3) Name channel file video.TSV.sfk0

4) Name channel file video.TSV.sfk1

 

So now how i can import inside Adobe Premiere this .TSV file video?

Media Info data information of .TSV file:

 

General
ID                                       : 5 (0x5)
Complete name                            : D:\PVR\3 HD 3(18082020_150318)\3 HD 3(18082020_150318).TSV
Format                                   : MPEG-TS
File size                                : 2.51 GiB
Duration                                 : 1 h 2 min
Overall bit rate mode                    : Variable
Overall bit rate                         : 5 731 kb/s
FileExtension_Invalid                    : ts m2t m2s m4t m4s tmf ts tp trp ty

Video
ID                                       : 533 (0x215)
Menu ID                                  : 8593 (0x2191)
Format                                   : AVC
Format/Info                              : Advanced Video Codec
Format profile                           : High@L4
Format settings                          : CABAC / 3 Ref Frames
Format settings, CABAC                   : Yes
Format settings, Reference frames        : 3 frames
Codec ID                                 : 27
Duration                                 : 1 h 2 min
Bit rate                                 : 4 930 kb/s
Width                                    : 1 920 pixels
Height                                   : 1 080 pixels
Display aspect ratio                     : 16:9
Frame rate                               : 25.000 FPS
Color space                              : YUV
Chroma subsampling                       : 4:2:0
Bit depth                                : 8 bits
Scan type                                : MBAFF
Scan type, store method                  : Interleaved fields
Scan order                               : Top Field First
Bits/(Pixel*Frame)                       : 0.095
Stream size                              : 2.16 GiB (86%)

Audio #1
ID                                       : 543 (0x21F)
Menu ID                                  : 8593 (0x2191)
Format                                   : AC-3
Format/Info                              : Audio Coding 3
Commercial name                          : Dolby Digital
Codec ID                                 : 6
Duration                                 : 1 h 2 min
Bit rate mode                            : Constant
Bit rate                                 : 448 kb/s
Channel(s)                               : 2 channels
Channel layout                           : L R
Sampling rate                            : 48.0 kHz
Frame rate                               : 31.250 FPS (1536 SPF)
Compression mode                         : Lossy
Delay relative to video                  : -1 s 22 ms
Stream size                              : 201 MiB (8%)
Language                                 : Italian
Service kind                             : Complete Main

Audio #2
ID                                       : 643 (0x283)
Menu ID                                  : 8593 (0x2191)
Format                                   : MPEG Audio
Format version                           : Version 1
Format profile                           : Layer 2
Codec ID                                 : 3
Duration                                 : 1 h 2 min
Bit rate mode                            : Constant
Bit rate                                 : 64.0 kb/s
Channel(s)                               : 1 channel
Sampling rate                            : 48.0 kHz
Frame rate                               : 41.667 FPS (1152 SPF)
Compression mode                         : Lossy
Delay relative to video                  : -1 s 60 ms
Stream size                              : 28.7 MiB (1%)
Language                                 : oth

Text #1
ID                                       : 583 (0x247)-777
Menu ID                                  : 8593 (0x2191)
Format                                   : Teletext Subtitle
Language                                 : Italian

Text #2
ID                                       : 583 (0x247)-778
Menu ID                                  : 8593 (0x2191)
Format                                   : Teletext Subtitle
Language                                 : English

Other
ID                                       : 583 (0x247)-100
Menu ID                                  : 8593 (0x2191)
Format                                   : Teletext
Language                                 : Italian

Menu
ID                                       : 553 (0x229)
Menu ID                                  : 8593 (0x2191)
Duration                                 : 1 h 2 min
List                                     : 533 (0x215) (AVC) / 543 (0x21F) (AC-3, Italian) / 583 (0x247)-100 (Teletext, it) / 583 (0x247)-777 (Teletext Subtitle, it) / 583 (0x247)-778 (Teletext Subtitle, en) / 643 (0x283) (MPEG Audio, oth) / 2001 (0x7D1) () / 2002 (0x7D2) () / 3001 (0xBB9) () / 3002 (0xBBA) () / 3101 (0xC1D) ()
Language                                 :  / Italian / Italian / Italian / English / oth

 

 For use this .TSV with another software, i manual rename extension file in .mp4 and working, but with Adobe Premiere not working and i prefer use this software for editing because have and excelent, Opencl hardware acceleration and export is very fast.

 

PS: I not need teletext or secondary audio channel but only the primary video/audio track.

Topics

Error or problem, Formats, How to, Import

Views

30

Likes

Translate

Translate

Report

Report
Community Guidelines
Be kind and respectful, give credit to the original source of content, and search for duplicates before posting. Learn more

How to import a media .TSV files?

New Here ,
Aug 18, 2020

Copy link to clipboard

Copied

Hi, sorry for my bad english, i have this problem:

My TV decoder PVR, record and generate these files:

1) Playlist.PLT

2) Name channel File video.TSV

3) Name channel file video.TSV.sfk0

4) Name channel file video.TSV.sfk1

 

So now how i can import inside Adobe Premiere this .TSV file video?

Media Info data information of .TSV file:

 

General
ID                                       : 5 (0x5)
Complete name                            : D:\PVR\3 HD 3(18082020_150318)\3 HD 3(18082020_150318).TSV
Format                                   : MPEG-TS
File size                                : 2.51 GiB
Duration                                 : 1 h 2 min
Overall bit rate mode                    : Variable
Overall bit rate                         : 5 731 kb/s
FileExtension_Invalid                    : ts m2t m2s m4t m4s tmf ts tp trp ty

Video
ID                                       : 533 (0x215)
Menu ID                                  : 8593 (0x2191)
Format                                   : AVC
Format/Info                              : Advanced Video Codec
Format profile                           : High@L4
Format settings                          : CABAC / 3 Ref Frames
Format settings, CABAC                   : Yes
Format settings, Reference frames        : 3 frames
Codec ID                                 : 27
Duration                                 : 1 h 2 min
Bit rate                                 : 4 930 kb/s
Width                                    : 1 920 pixels
Height                                   : 1 080 pixels
Display aspect ratio                     : 16:9
Frame rate                               : 25.000 FPS
Color space                              : YUV
Chroma subsampling                       : 4:2:0
Bit depth                                : 8 bits
Scan type                                : MBAFF
Scan type, store method                  : Interleaved fields
Scan order                               : Top Field First
Bits/(Pixel*Frame)                       : 0.095
Stream size                              : 2.16 GiB (86%)

Audio #1
ID                                       : 543 (0x21F)
Menu ID                                  : 8593 (0x2191)
Format                                   : AC-3
Format/Info                              : Audio Coding 3
Commercial name                          : Dolby Digital
Codec ID                                 : 6
Duration                                 : 1 h 2 min
Bit rate mode                            : Constant
Bit rate                                 : 448 kb/s
Channel(s)                               : 2 channels
Channel layout                           : L R
Sampling rate                            : 48.0 kHz
Frame rate                               : 31.250 FPS (1536 SPF)
Compression mode                         : Lossy
Delay relative to video                  : -1 s 22 ms
Stream size                              : 201 MiB (8%)
Language                                 : Italian
Service kind                             : Complete Main

Audio #2
ID                                       : 643 (0x283)
Menu ID                                  : 8593 (0x2191)
Format                                   : MPEG Audio
Format version                           : Version 1
Format profile                           : Layer 2
Codec ID                                 : 3
Duration                                 : 1 h 2 min
Bit rate mode                            : Constant
Bit rate                                 : 64.0 kb/s
Channel(s)                               : 1 channel
Sampling rate                            : 48.0 kHz
Frame rate                               : 41.667 FPS (1152 SPF)
Compression mode                         : Lossy
Delay relative to video                  : -1 s 60 ms
Stream size                              : 28.7 MiB (1%)
Language                                 : oth

Text #1
ID                                       : 583 (0x247)-777
Menu ID                                  : 8593 (0x2191)
Format                                   : Teletext Subtitle
Language                                 : Italian

Text #2
ID                                       : 583 (0x247)-778
Menu ID                                  : 8593 (0x2191)
Format                                   : Teletext Subtitle
Language                                 : English

Other
ID                                       : 583 (0x247)-100
Menu ID                                  : 8593 (0x2191)
Format                                   : Teletext
Language                                 : Italian

Menu
ID                                       : 553 (0x229)
Menu ID                                  : 8593 (0x2191)
Duration                                 : 1 h 2 min
List                                     : 533 (0x215) (AVC) / 543 (0x21F) (AC-3, Italian) / 583 (0x247)-100 (Teletext, it) / 583 (0x247)-777 (Teletext Subtitle, it) / 583 (0x247)-778 (Teletext Subtitle, en) / 643 (0x283) (MPEG Audio, oth) / 2001 (0x7D1) () / 2002 (0x7D2) () / 3001 (0xBB9) () / 3002 (0xBBA) () / 3101 (0xC1D) ()
Language                                 :  / Italian / Italian / Italian / English / oth

 

 For use this .TSV with another software, i manual rename extension file in .mp4 and working, but with Adobe Premiere not working and i prefer use this software for editing because have and excelent, Opencl hardware acceleration and export is very fast.

 

PS: I not need teletext or secondary audio channel but only the primary video/audio track.

Topics

Error or problem, Formats, How to, Import

Views

31

Likes

Translate

Translate

Report

Report
Community Guidelines
Be kind and respectful, give credit to the original source of content, and search for duplicates before posting. Learn more

Have something to add?

Join the conversation