Welcome Dialog

Welcome to the Community!

We have a brand new look! Take a tour with us and explore the latest updates on Adobe Support Community.


5.1 Surround Sound imports appearing as Stereo

New Here ,
Oct 22, 2021 Oct 22, 2021

Copy link to clipboard

Copied

I have imported mp4 files with multiple audio tracks into a sequence in Adobe Premiere Pro CC 2018. I am unable to figure out how to get the surround sound working correctly. I have selected 5.1 Surround when I created the sequence. The video files have multiple sound tracks, one being a 5.1 Surround Dolby Digital Plus track, and the other being a stereo AAC track. Premiere Pro is showing these tracks as L R L R L R repeating instead of all six channels. Only two channels appear in the modify clip window instead of six. How can I get the 5.1 Surround sound working properly with all six channels?

sound3.PNG

 

 

adobepremieresurround.PNG

General
Complete name : \\server\Network\Personal Files\Pictures\Nokia Lumia 1520\Camera Roll\2020\WP_20201126_10_55_40_Pro.mp4
Format : MPEG-4
Format profile : Base Media / Version 2
Codec ID : mp42 (mp42/3gp6/isom/M4V )
File size : 833 MiB
Duration : 1 min 57 s
Overall bit rate : 59.4 Mb/s
Encoded date : UTC 2020-11-26 20:55:41
Tagged date : UTC 2020-11-29 21:40:31

Video
ID : 1
Format : AVC
Format/Info : Advanced Video Codec
Format profile : Main@L5.1
Format settings : 2 Ref Frames
Format settings, CABAC : No
Format settings, RefFrames : 2 frames
Format settings, GOP : M=3, N=28
Codec ID : avc1
Codec ID/Info : Advanced Video Coding
Duration : 1 min 57 s
Source duration : 1 min 57 s
Bit rate : 58.9 Mb/s
Width : 3 840 pixels
Height : 2 160 pixels
Display aspect ratio : 16:9
Frame rate mode : Variable
Frame rate : 30.000 FPS
Minimum frame rate : 29.762 FPS
Maximum frame rate : 30.211 FPS
Color space : YUV
Chroma subsampling : 4:2:0
Bit depth : 8 bits
Scan type : Progressive
Bits/(Pixel*Frame) : 0.237
Stream size : 824 MiB (99%)
Source stream size : 824 MiB (99%)
Encoded date : UTC 2020-11-26 19:55:43
Tagged date : UTC 2020-11-26 19:55:43
Color range : Limited
Color primaries : BT.601 NTSC

 

Audio #1
ID : 2
Format : E-AC-3
Format/Info : Enhanced Audio Coding 3
Format settings, Endianness : Little
Codec ID : ec-3
Duration : 1 min 57 s
Source duration : 1 min 57 s
Bit rate mode : Constant
Bit rate : 384 kb/s
Channel(s) : 6 channels
Channel positions : Front: L C R, Side: L R, LFE
Sampling rate : 48.0 kHz
Frame rate : 187.500 FPS (256 SPF)
Bit depth : 16 bits
Compression mode : Lossy
Stream size : 5.39 MiB (1%)
Source stream size : 5.39 MiB (1%)
Service kind : Complete Main
Encoded date : UTC 2020-11-26 19:55:43
Tagged date : UTC 2020-11-26 19:55:43

 

Audio #2
ID : 3
Format : AAC
Format/Info : Advanced Audio Codec
Format profile : LC
Codec ID : mp4a-40-2
Duration : 1 min 57 s
Bit rate mode : Constant
Bit rate : 256 kb/s
Channel(s) : 2 channels
Channel positions : Front: L R
Sampling rate : 48.0 kHz
Frame rate : 46.875 FPS (1024 SPF)
Compression mode : Lossy
Stream size : 3.54 MiB (0%)
Encoded date : UTC 2020-11-26 19:55:43
Tagged date : UTC 2020-11-26 19:55:43

TOPICS
Audio, Editing, Formats, Import

Views

37

Likes

Translate

Translate

Report

Report
Community guidelines
Be kind and respectful, give credit to the original source of content, and search for duplicates before posting. Learn more
community guidelines
no replies

Have something to add?

Join the conversation