• Global community
    • Language:
      • Deutsch
      • English
      • Español
      • Français
      • Português
  • 日本語コミュニティ
    Dedicated community for Japanese speakers
  • 한국 커뮤니티
    Dedicated community for Korean speakers
Exit
0

PE 14 fighting .MOV Adjustments

Explorer ,
Aug 18, 2022 Aug 18, 2022

Copy link to clipboard

Copied

My project will Add Media from iPhone .MOV file, it will play the video and do the cut/delete/close gap and etc.  BUT when I try to do an Adjust in Expert Mode it slams me with an angry red banner “Shake Reduction requires clip dimensions to match Project Settings” and insists I “Create new project”.
1. How do I even determine what my clip dimensions are?  I don't get much from 'Properties' of the file...

2. I search the presets for a matching spec for .MOV and that doesn't help.

I'm running Win10 Pro on a pretty capable PC with a good graphics processor.

TOPICS
Error or problem

Views

268

Translate

Translate

Report

Report
Community guidelines
Be kind and respectful, give credit to the original source of content, and search for duplicates before posting. Learn more
community guidelines
Community Expert ,
Aug 18, 2022 Aug 18, 2022

Copy link to clipboard

Copied

Free program to get file information for PC/Mac http://mediaarea.net/en/MediaInfo/Download

Votes

Translate

Translate

Report

Report
Community guidelines
Be kind and respectful, give credit to the original source of content, and search for duplicates before posting. Learn more
community guidelines
LEGEND ,
Aug 18, 2022 Aug 18, 2022

Copy link to clipboard

Copied

As John suggests, open your MOV in the free download MediaInfo. In MediaInfo, set View to Text and then copy the complete text of this report and paste it to this forum. With this detailed information we'll be better able to advise you.

Votes

Translate

Translate

Report

Report
Community guidelines
Be kind and respectful, give credit to the original source of content, and search for duplicates before posting. Learn more
community guidelines
Community Expert ,
Aug 18, 2022 Aug 18, 2022

Copy link to clipboard

Copied

As John and Steve suggest, it helps to know what the MOV video file is made of.  It will also help to know how you are setting up your project.

Votes

Translate

Translate

Report

Report
Community guidelines
Be kind and respectful, give credit to the original source of content, and search for duplicates before posting. Learn more
community guidelines
Explorer ,
Aug 19, 2022 Aug 19, 2022

Copy link to clipboard

Copied

Thanks Steve.
I downloaded "MediaInfo_GraphPlugin_22.06_Windows.exe" and ran it as administrator... but I don't find the program to do the 'set View' you describe.  I opened PE14 and did a File/Get Properties for and selected one of my Eagle videos.  This is what came up:

Mikey44MagBiker_0-1660926837763.png

as you see, I can't do the text version, sorry.  I'm only marginally adept at these tasks.

 



Votes

Translate

Translate

Report

Report
Community guidelines
Be kind and respectful, give credit to the original source of content, and search for duplicates before posting. Learn more
community guidelines
LEGEND ,
Aug 19, 2022 Aug 19, 2022

Copy link to clipboard

Copied

This tutorial will show you how to get what we need.

 

Votes

Translate

Translate

Report

Report
Community guidelines
Be kind and respectful, give credit to the original source of content, and search for duplicates before posting. Learn more
community guidelines
Explorer ,
Sep 02, 2022 Sep 02, 2022

Copy link to clipboard

Copied

Steve, my apologies for the rude long time for this response.  We have a health situation at home that sometimes requires me to pause all the fun stuff for a while.  Back to the 'normal' situation now...
It took me a few tries, but now my system works just like your instruction video.  {I warned you about my doofus limitations}.  So, here is the full text result on the probematic video:

General
Complete name : D:\MyQVideos\Family Videos\~Nature\Birds\Eagle\15Z_1020 Eagle.MOV
Format : MPEG-4
Format profile : QuickTime
Codec ID : qt 2007.09 (qt /niko)
File size : 37.0 MiB
Duration : 8 s 258 ms
Overall bit rate : 37.6 Mb/s
Encoded date : UTC 2015-12-11 11:11:58
Tagged date : UTC 2015-12-11 11:11:58
NCDT : NCTG

Video
ID : 1
Format : AVC
Format/Info : Advanced Video Codec
Format profile : High@L4.2
Format settings : CABAC / 2 Ref Frames
Format settings, CABAC : Yes
Format settings, Reference frames : 2 frames
Format settings, GOP : M=3, N=30
Codec ID : avc1
Codec ID/Info : Advanced Video Coding
Duration : 8 s 258 ms
Bit rate : 35.8 Mb/s
Width : 1 920 pixels
Height : 1 080 pixels
Display aspect ratio : 16:9
Frame rate mode : Constant
Frame rate : 59.940 (60000/1001) FPS
Color space : YUV
Chroma subsampling : 4:2:0
Bit depth : 8 bits
Scan type : Progressive
Bits/(Pixel*Frame) : 0.288
Stream size : 35.2 MiB (95%)
Language : English
Encoded date : UTC 2015-12-11 11:11:58
Tagged date : UTC 2015-12-11 11:11:58
Color range : Full
Color primaries : BT.709
transfer_characteristics_Original : BT.470 System M
Matrix coefficients : BT.601
Codec configuration box : avcC

Audio
ID : 2
Format : PCM
Format settings : Little / Signed
Codec ID : sowt
Duration : 8 s 258 ms
Bit rate mode : Constant
Bit rate : 1 536 kb/s
Channel(s) : 2 channels
Channel layout : L R
Sampling rate : 48.0 kHz
Bit depth : 16 bits
Stream size : 1.51 MiB (4%)
Language : English
Encoded date : UTC 2015-12-11 11:11:58
Tagged date : UTC 2015-12-11 11:11:58

============================================
It is hard to underestimate my level of comprehension!
But thank you for your time and attention.
Mike

Votes

Translate

Translate

Report

Report
Community guidelines
Be kind and respectful, give credit to the original source of content, and search for duplicates before posting. Learn more
community guidelines
Community Expert ,
Aug 20, 2022 Aug 20, 2022

Copy link to clipboard

Copied

Shade reduction will only work on clips that have the same height and width as the project settings.

Guessing E14 does not have a UDH project setting.

Votes

Translate

Translate

Report

Report
Community guidelines
Be kind and respectful, give credit to the original source of content, and search for duplicates before posting. Learn more
community guidelines
Community Beginner ,
Mar 26, 2023 Mar 26, 2023

Copy link to clipboard

Copied

But if I decide to forgoe the shake reduction, how do I get rid of the red banner? Surely they didn't intend to leave us in the lurch like this?

Votes

Translate

Translate

Report

Report
Community guidelines
Be kind and respectful, give credit to the original source of content, and search for duplicates before posting. Learn more
community guidelines
Community Expert ,
Mar 26, 2023 Mar 26, 2023

Copy link to clipboard

Copied

LATEST

Remove effect from clip.

Votes

Translate

Translate

Report

Report
Community guidelines
Be kind and respectful, give credit to the original source of content, and search for duplicates before posting. Learn more
community guidelines