• Global community
    • Language:
      • Deutsch
      • English
      • Español
      • Français
      • Português
  • 日本語コミュニティ
    Dedicated community for Japanese speakers
  • 한국 커뮤니티
    Dedicated community for Korean speakers
Exit
0

8 bit or 10 bit footage how to know.

Explorer ,
Mar 24, 2021 Mar 24, 2021

Copy link to clipboard

Copied

How can you tell if the footage you are working with is 8 bit or 10 bit?

TOPICS
Import

Views

2.5K

Translate

Translate

Report

Report
Community guidelines
Be kind and respectful, give credit to the original source of content, and search for duplicates before posting. Learn more
community guidelines

correct answers 1 Correct answer

Advocate , Mar 24, 2021 Mar 24, 2021

My personal preference is MediaInfo tool

Votes

Translate

Translate
Advocate ,
Mar 24, 2021 Mar 24, 2021

Copy link to clipboard

Copied

My personal preference is MediaInfo tool

Votes

Translate

Translate

Report

Report
Community guidelines
Be kind and respectful, give credit to the original source of content, and search for duplicates before posting. Learn more
community guidelines
Explorer ,
Mar 24, 2021 Mar 24, 2021

Copy link to clipboard

Copied

I don't see in this an id for 8 bit color or 10 bit color in it. Am I missing something?

 

Votes

Translate

Translate

Report

Report
Community guidelines
Be kind and respectful, give credit to the original source of content, and search for duplicates before posting. Learn more
community guidelines
Advocate ,
Mar 24, 2021 Mar 24, 2021

Copy link to clipboard

Copied

Switch view from Basic to one of these: Text/Tree/Html

Votes

Translate

Translate

Report

Report
Community guidelines
Be kind and respectful, give credit to the original source of content, and search for duplicates before posting. Learn more
community guidelines
Explorer ,
Mar 24, 2021 Mar 24, 2021

Copy link to clipboard

Copied

Thank you!

Votes

Translate

Translate

Report

Report
Community guidelines
Be kind and respectful, give credit to the original source of content, and search for duplicates before posting. Learn more
community guidelines
Explorer ,
Jul 11, 2023 Jul 11, 2023

Copy link to clipboard

Copied

LATEST

Hello. Don't mind me reviving this question.

I'm using the MediaInfo tool, but in HTML nor Text it doesn't mention the bitrate.


Format : MPEG-4
Format profile : QuickTime
Codec ID : qt 2005.03 (qt )
File size : 2.45 GiB
Duration : 21 s 280 ms
Overall bit rate mode : Variable
Overall bit rate : 989 Mb/s
Frame rate : 50.000 FPS
Encoded date : 2023-06-23 20:34:36 UTC
Tagged date : 2023-06-23 20:34:36 UTC
Writing library : Apple QuickTime
com.atomos.hdr.gamut : Rec709
com.atomos.hdr.gamma : Rec709
com.atomos.hdr.monitormode : Native
com.atomos.hdr.range : Legal
com.apple.proapps.image.{TIFF}.Make : Atomos
com.apple.proapps.image.{TIFF}.Model : NinjaV
com.apple.proapps.image.{TIFF}.Software : 10.92.01

Video
ID : 2
Format : ProRes
Format version : Version 0
Format profile : 422
Codec ID : apcn
Duration : 21 s 280 ms
Bit rate mode : Variable
Bit rate : 987 Mb/s
Width : 3 840 pixels
Height : 2 160 pixels
Display aspect ratio : 16:9
Frame rate mode : Constant
Frame rate : 50.000 FPS
Color space : YUV
Chroma subsampling : 4:2:2
Scan type : Progressive
Bits/(Pixel*Frame) : 2.379
Stream size : 2.44 GiB (100%)
Writing library : atms
Language : English
Encoded date : 2023-06-23 20:34:36 UTC
Tagged date : 2023-06-23 20:34:36 UTC
Color primaries : BT.709
Transfer characteristics : BT.709
Matrix coefficients : BT.709

Audio
ID : 1
Format : PCM
Format settings : Little / Signed
Codec ID : in24
Duration : 21 s 280 ms
Bit rate mode : Constant
Bit rate : 2 304 kb/s
Channel(s) : 2 channels
Channel layout : L R
Sampling rate : 48.0 kHz
Bit depth : 24 bits
Stream size : 2.92 MiB (0%)
Language : English
Encoded date : 2023-06-23 20:34:36 UTC
Tagged date : 2023-06-23 20:34:36 UTC

Other
ID : 3


Type : Time code
Format : QuickTime TC
Duration : 21 s 280 ms
Frame rate : 50.000 FPS
Time code of first frame : 00:00:00:00
Time code of last frame : 00:00:21:13
Time code, stripped : Yes
Language : English
Encoded date : 2023-06-23 20:34:36 UTC
Tagged date : 2023-06-23 20:34:36 UTC

 

Votes

Translate

Translate

Report

Report
Community guidelines
Be kind and respectful, give credit to the original source of content, and search for duplicates before posting. Learn more
community guidelines