Audio transitions not working with IPhone in Premiere Pro 2022

Explorer ,
May 06, 2022 May 06, 2022

Copy link to clipboard

Copied

Ok, so tired of this. Iphone footage edited in Premiere Pro 2022.3.1, some audio transitions used to blend audio in cuts. So I export in ANY format and in those parts of the video where there are the audio transitions I get no sound. Nice. Lost a client because of that. The only solution - export the audio separately, place it on the timeline, mute the original audio and export. I don't know what to think of Premiere Pro and Adobe. Adding all those unnecessary features from version to version and not fixing issues. Why do I know it? Because I'm havind this issue since version 2021. Furious!

TOPICS
Audio , Error or problem , Export

Views

467

Likes

Translate

Translate

Report

Report
Community guidelines
Be kind and respectful, give credit to the original source of content, and search for duplicates before posting. Learn more
community guidelines
Adobe Employee ,
May 06, 2022 May 06, 2022

Copy link to clipboard

Copied

Hi Андрей5E17,

 

We're sorry to hear about this. We can get this checked. Please let us know the name of the audio transition that you have used. Also, if possible, share a download link of the source media. It will help us to diagnose the issue properly at our end.

 

Thanks,

Sumeet

Likes

Translate

Translate

Report

Report
Community guidelines
Be kind and respectful, give credit to the original source of content, and search for duplicates before posting. Learn more
community guidelines
Explorer ,
May 06, 2022 May 06, 2022

Copy link to clipboard

Copied

Its all the three transiotions available in PP, found in Audio 5
transitions. I tried them all

Likes

Translate

Translate

Report

Report
Community guidelines
Be kind and respectful, give credit to the original source of content, and search for duplicates before posting. Learn more
community guidelines
Adobe Community Professional ,
May 06, 2022 May 06, 2022

Copy link to clipboard

Copied

Please use the free MediaInfo and post a screenshot of the properties of your media in tree view:
https://mediaarea.net/en/MediaInfo

Many users are having issues with VFR. If the file is variable frame rate, use Handbrake to convert to constant frame rate:
https://handbrake.fr/downloads.php
Here is a tutorial:
https://www.youtube.com/watch?time_continue=34&v=xlvxgVREX-Y

Shutter Encoder may also be used to convert to Constant Frame Rate:
https://www.shutterencoder.com/en/

Likes

Translate

Translate

Report

Report
Community guidelines
Be kind and respectful, give credit to the original source of content, and search for duplicates before posting. Learn more
community guidelines
Explorer ,
May 07, 2022 May 07, 2022

Copy link to clipboard

Copied

General
Complete name : A:\ТЕКУЩИЕ ПРОЕКТЫ\ДенисСтрой\5.05.2022\Skyz\IMG_2115.mov
Format : MPEG-4
Format profile : QuickTime
Codec ID : qt 0000.00 (qt )
File size : 2.56 GiB
Duration : 46 min 51 s
Overall bit rate mode : Variable
Overall bit rate : 7 831 kb/s
Encoded date : UTC 2022-05-05 08:41:37
Tagged date : UTC 2022-05-05 09:28:29
Writing library : Apple QuickTime
com.apple.quicktime.make : Apple
com.apple.quicktime.model : iPhone 11 Pro
com.apple.quicktime.software : 15.4.1
com.apple.quicktime.creationda : 2022-05-05T12:41:37+0400

Video
ID : 1
Format : HEVC
Format/Info : High Efficiency Video Coding
Format profile : Main@L4@Main
Codec ID : hvc1
Codec ID/Info : High Efficiency Video Coding
Duration : 46 min 51 s
Bit rate : 7 662 kb/s
Width : 1 920 pixels
Height : 1 080 pixels
Display aspect ratio : 16:9
Frame rate mode : Variable
Frame rate : 29.970 (29970/1000) FPS
Minimum frame rate : 28.571 FPS
Maximum frame rate : 30.000 FPS
Color space : YUV
Chroma subsampling : 4:2:0
Bit depth : 8 bits
Bits/(Pixel*Frame) : 0.123
Stream size : 2.51 GiB (98%)
Title : Core Media Video
Encoded date : UTC 2022-05-05 08:41:37
Tagged date : UTC 2022-05-05 09:28:29
Color range : Limited
Color primaries : BT.709
Transfer characteristics : BT.709
Matrix coefficients : BT.709
Codec configuration box : hvcC

Audio
ID : 2
Format : AAC LC
Format/Info : Advanced Audio Codec Low Complexity
Codec ID : mp4a-40-2
Duration : 46 min 51 s
Source duration : 46 min 51 s
Bit rate mode : Variable
Bit rate : 96.0 kb/s
Channel(s) : 1 channel
Channel layout : C
Sampling rate : 44.1 kHz
Frame rate : 43.066 FPS (1024 SPF)
Compression mode : Lossy
Stream size : 31.8 MiB (1%)
Source stream size : 31.8 MiB (1%)
Title : Core Media Audio
Encoded date : UTC 2022-05-05 08:41:37
Tagged date : UTC 2022-05-05 09:28:29

Other #1
Type : meta
Duration : 46 min 51 s
Bit rate mode : Constant

Other #2
Type : meta
Duration : 46 min 51 s
Bit rate mode : Variable

Other #3
Type : meta
Duration : 46 min 51 s
Bit rate mode : Variable

 

Likes

Translate

Translate

Report

Report
Community guidelines
Be kind and respectful, give credit to the original source of content, and search for duplicates before posting. Learn more
community guidelines
Explorer ,
May 07, 2022 May 07, 2022

Copy link to clipboard

Copied

And the second file: 

General
Complete name : A:\ТЕКУЩИЕ ПРОЕКТЫ\ДенисСтрой\5.05.2022\Skyz\IMG_0709.mov
Format : MPEG-4
Format profile : QuickTime
Codec ID : qt 0000.00 (qt )
File size : 2.73 GiB
Duration : 47 min 14 s
Overall bit rate mode : Variable
Overall bit rate : 8 283 kb/s
Encoded date : UTC 2022-05-05 08:41:18
Tagged date : UTC 2022-05-05 09:28:33
Writing library : Apple QuickTime
com.apple.quicktime.make : Apple
com.apple.quicktime.model : iPhone 12 Pro
com.apple.quicktime.software : 15.4.1
com.apple.quicktime.creationda : 2022-05-05T12:41:18+0400

Video
ID : 1
Format : HEVC
Format/Info : High Efficiency Video Coding
Format profile : Main 10@L4@Main
HDR format : Dolby Vision, Version 1.0, dvhe.08.04, BL+RPU, HLG compatible
Codec ID : hvc1
Codec ID/Info : High Efficiency Video Coding
Duration : 47 min 14 s
Bit rate : 8 032 kb/s
Width : 1 920 pixels
Height : 1 080 pixels
Display aspect ratio : 16:9
Frame rate mode : Variable
Frame rate : 29.970 (29970/1000) FPS
Minimum frame rate : 28.571 FPS
Maximum frame rate : 30.000 FPS
Color space : YUV
Chroma subsampling : 4:2:0
Bit depth : 10 bits
Bits/(Pixel*Frame) : 0.129
Stream size : 2.65 GiB (97%)
Title : Core Media Video
Encoded date : UTC 2022-05-05 08:41:18
Tagged date : UTC 2022-05-05 09:28:33
Color range : Limited
Color primaries : BT.2020
Transfer characteristics : HLG
Matrix coefficients : BT.2020 non-constant
Codec configuration box : hvcC+dvvC

Audio
ID : 2
Format : AAC LC
Format/Info : Advanced Audio Codec Low Complexity
Codec ID : mp4a-40-2
Duration : 47 min 14 s
Source duration : 47 min 14 s
Bit rate mode : Variable
Bit rate : 182 kb/s
Channel(s) : 2 channels
Channel layout : L R
Sampling rate : 44.1 kHz
Frame rate : 43.066 FPS (1024 SPF)
Compression mode : Lossy
Stream size : 61.4 MiB (2%)
Source stream size : 61.4 MiB (2%)
Title : Core Media Audio
Encoded date : UTC 2022-05-05 08:41:18
Tagged date : UTC 2022-05-05 09:28:33

Other #1
Type : meta
Duration : 47 min 14 s
Bit rate mode : Constant

Other #2
Type : meta
Duration : 47 min 14 s
Bit rate mode : Variable

Other #3
Type : meta
Duration : 47 min 14 s
Bit rate mode : Variable

 

Likes

Translate

Translate

Report

Report
Community guidelines
Be kind and respectful, give credit to the original source of content, and search for duplicates before posting. Learn more
community guidelines
Adobe Community Professional ,
May 07, 2022 May 07, 2022

Copy link to clipboard

Copied

Your media is Variable Frame Rate.

Use Handbrake to convert to constant frame rate before importing into Premiere Pro:
https://handbrake.fr/downloads.php
Here is a tutorial:
https://www.youtube.com/watch?time_continue=34&v=xlvxgVREX-Y

Shutter Encoder may also be used to convert to Constant Frame Rate:
https://www.shutterencoder.com/en/

Converting uneditable videos into an editable format with Handbrake. If you've got any questions, please drop by our free Community Forum at Muvipix.com.

Likes

Translate

Translate

Report

Report
Community guidelines
Be kind and respectful, give credit to the original source of content, and search for duplicates before posting. Learn more
community guidelines
Explorer ,
May 07, 2022 May 07, 2022

Copy link to clipboard

Copied

Excuse me. Are you trying to tell me Premiere Pro - a professional program with years of history - cannot handle videos with different framerate? In 2022? A professional video editing software?! And the different framerate is causoing AN AUDIO TRANSITION not work? Don't you think it's kind of crap?! By the way, when I import these 2 files, I manually delete one on the audio tracks, leaving the one recorded on a portable microphone. So I basically work with only one audio track and Premiere Pro audio transitions behave like the above mentioned.

Likes

Translate

Translate

Report

Report
Community guidelines
Be kind and respectful, give credit to the original source of content, and search for duplicates before posting. Learn more
community guidelines
Adobe Community Professional ,
May 07, 2022 May 07, 2022

Copy link to clipboard

Copied

quote

videos with different framerate


By @Андрей5E17

 

It's not that the frame rates of the two clips are different.  It's that each clip is not Constant Frame Rate.

 

Have a look here:

https://community.adobe.com/t5/premiere-pro-discussions/faq-how-to-work-with-variable-frame-rate-vfr...

 

Likes

Translate

Translate

Report

Report
Community guidelines
Be kind and respectful, give credit to the original source of content, and search for duplicates before posting. Learn more
community guidelines
Explorer ,
May 07, 2022 May 07, 2022

Copy link to clipboard

Copied

So, how is it connected with the sound?

Likes

Translate

Translate

Report

Report
Community guidelines
Be kind and respectful, give credit to the original source of content, and search for duplicates before posting. Learn more
community guidelines
Adobe Community Professional ,
May 07, 2022 May 07, 2022

Copy link to clipboard

Copied

Behavior of VFR clips can be unpredictable and wonky at times..

Likes

Translate

Translate

Report

Report
Community guidelines
Be kind and respectful, give credit to the original source of content, and search for duplicates before posting. Learn more
community guidelines
Explorer ,
May 08, 2022 May 08, 2022

Copy link to clipboard

Copied

LATEST
Well this makes Premiere Pro bad software then because on Vegas and
DaVinchi I had no such problems. And again should I export the audio alone
from these files with VFR magically they have no problems.

Likes

Translate

Translate

Report

Report
Community guidelines
Be kind and respectful, give credit to the original source of content, and search for duplicates before posting. Learn more
community guidelines