• Global community
    • Language:
      • Deutsch
      • English
      • Español
      • Français
      • Português
  • 日本語コミュニティ
    Dedicated community for Japanese speakers
  • 한국 커뮤니티
    Dedicated community for Korean speakers
Exit
0

Clicking the 'Motion' tab causes performance issues

Participant ,
Mar 18, 2024 Mar 18, 2024

Copy link to clipboard

Copied

When I select a clip and adjust the Position / Scale values, it seems to be fairly smooth.

 

When I click the 'Motion' tab to show the Outline + Anchor point, suddenly adjusting the position / scale values is extremely slow and unresponsive.

 

 

Version 24.1.0 (Build 85)

 

Worth noting that adjusting the position / scale values in any timeline with a slightly more significant amount of footage becomes extremely laggy too...

 

The files I am using:

File 1

 

Video
ID                          : 1
Format                      : AVC
Format/Info                 : Advanced Video Codec
Format profile              : Main@L4
Format settings             : CABAC / 4 Ref Frames
Format settings, CABAC      : Yes
Format settings, Reference  : 4 frames
Codec ID                    : avc1
Codec ID/Info               : Advanced Video Coding
Duration                    : 8 min 16 s
Bit rate                    : 6 601 kb/s
Width                       : 1 920 pixels
Height                      : 1 080 pixels
Display aspect ratio        : 16:9
Frame rate mode             : Constant
Frame rate                  : 60.000 FPS
Color space                 : YUV
Chroma subsampling          : 4:2:0
Bit depth                   : 8 bits
Scan type                   : Progressive
Bits/(Pixel*Frame)          : 0.053
Stream size                 : 390 MiB (98%)
Writing library             : x264 core 164 r3107 a8b68ebf
Encoding settings           : cabac=1 / ref=2 / deblock=1:0:0 / analyse=0x1:0x111 / me=hex / subme=6 / psy=1 / psy_rd=1.00:0.00 / mixed_ref=1 / me_range=16 / chroma_me=1 / trellis=1 / 8x8dct=0 / cqm=0 / deadzone=21,11 / fast_pskip=1 / chroma_qp_offset=-2 / threads=24 / lookahead_threads=4 / sliced_threads=0 / nr=0 / decimate=1 / interlaced=0 / bluray_compat=0 / constrained_intra=0 / bframes=3 / b_pyramid=2 / b_adapt=1 / b_bias=0 / direct=1 / weightb=1 / open_gop=0 / weightp=1 / keyint=600 / keyint_min=60 / scenecut=40 / intra_refresh=0 / rc_lookahead=30 / rc=crf / mbtree=1 / crf=22.0 / qcomp=0.60 / qpmin=0 / qpmax=69 / qpstep=4 / vbv_maxrate=20000 / vbv_bufsize=25000 / crf_max=0.0 / nal_hrd=none / filler=0 / ip_ratio=1.40 / aq=1:1.00
Encoded date                : 2024-03-16 22:40:18 UTC
Tagged date                 : 2024-03-16 22:40:18 UTC
Color range                 : Limited
Color primaries             : BT.709
Transfer characteristics    : BT.709
Matrix coefficients         : BT.709
Codec configuration box     : avcC

Audio
ID                          : 2
Format                      : AAC LC
Format/Info                 : Advanced Audio Codec Low Complexity
Codec ID                    : mp4a-40-2
Duration                    : 8 min 16 s
Source duration             : 8 min 16 s
Bit rate mode               : Constant
Bit rate                    : 109 kb/s
Channel(s)                  : 2 channels
Channel layout              : L R
Sampling rate               : 48.0 kHz
Frame rate                  : 46.875 FPS (1024 SPF)
Compression mode            : Lossy
Stream size                 : 6.44 MiB (2%)
Source stream size          : 6.44 MiB (2%)
Title                       : simple_aac_recording0 / simple_aac_recording0
Default                     : Yes
Alternate group             : 1
Encoded date                : 2024-03-16 22:40:18 UTC
Tagged date                 : 2024-03-16 22:40:18 UTC

 

File 2 (Layed on top of File 1, think Facecam on top of Gameplay)

 

Video
ID                          : 1
Format                      : AVC
Format/Info                 : Advanced Video Codec
Format profile              : Main@L4
Format settings             : CABAC / 4 Ref Frames
Format settings, CABAC      : Yes
Format settings, Reference  : 4 frames
Codec ID                    : avc1
Codec ID/Info               : Advanced Video Coding
Duration                    : 8 min 16 s
Bit rate                    : 2 519 kb/s
Width                       : 1 920 pixels
Height                      : 1 080 pixels
Display aspect ratio        : 16:9
Frame rate mode             : Constant
Frame rate                  : 60.000 FPS
Color space                 : YUV
Chroma subsampling          : 4:2:0
Bit depth                   : 8 bits
Scan type                   : Progressive
Bits/(Pixel*Frame)          : 0.020
Stream size                 : 149 MiB (94%)
Writing library             : x264 core 164 r3107 a8b68ebf
Encoding settings           : cabac=1 / ref=2 / deblock=1:0:0 / analyse=0x1:0x111 / me=hex / subme=6 / psy=1 / psy_rd=1.00:0.00 / mixed_ref=1 / me_range=16 / chroma_me=1 / trellis=1 / 8x8dct=0 / cqm=0 / deadzone=21,11 / fast_pskip=1 / chroma_qp_offset=-2 / threads=24 / lookahead_threads=4 / sliced_threads=0 / nr=0 / decimate=1 / interlaced=0 / bluray_compat=0 / constrained_intra=0 / bframes=3 / b_pyramid=2 / b_adapt=1 / b_bias=0 / direct=1 / weightb=1 / open_gop=0 / weightp=1 / keyint=600 / keyint_min=60 / scenecut=40 / intra_refresh=0 / rc_lookahead=30 / rc=crf / mbtree=1 / crf=22.0 / qcomp=0.60 / qpmin=0 / qpmax=69 / qpstep=4 / vbv_maxrate=20000 / vbv_bufsize=25000 / crf_max=0.0 / nal_hrd=none / filler=0 / ip_ratio=1.40 / aq=1:1.00
Encoded date                : 2024-03-18 13:52:22 UTC
Tagged date                 : 2024-03-18 13:52:22 UTC
Color range                 : Limited
Color primaries             : BT.709
Transfer characteristics    : BT.709
Matrix coefficients         : BT.709
Codec configuration box     : avcC

Audio
ID                          : 2
Format                      : AAC LC
Format/Info                 : Advanced Audio Codec Low Complexity
Codec ID                    : mp4a-40-2
Duration                    : 8 min 17 s
Source duration             : 8 min 17 s
Bit rate mode               : Constant
Bit rate                    : 161 kb/s
Channel(s)                  : 2 channels
Channel layout              : L R
Sampling rate               : 48.0 kHz
Frame rate                  : 46.875 FPS (1024 SPF)
Compression mode            : Lossy
Stream size                 : 9.52 MiB (6%)
Source stream size          : 9.52 MiB (6%)
Title                       : Stereo / Stereo
Default                     : Yes
Alternate group             : 1
Encoded date                : 2024-03-18 13:52:22 UTC
Tagged date                 : 2024-03-18 13:52:22 UTC

 

 

These have both been proxied using the 'ProRes Medium Resolution Proxy' from Premiere Pro.

Bug Unresolved
TOPICS
Editing and playback , Performance or Stability

Views

122

Translate

Translate

Report

Report
Community guidelines
Be kind and respectful, give credit to the original source of content, and search for duplicates before posting. Learn more
community guidelines
9 Comments
Adobe Employee ,
Mar 18, 2024 Mar 18, 2024

Copy link to clipboard

Copied

This sounds like an issue that we made improvements on. If you have a chance, could you please try 24.4 beta build 019 or higher to see if this is improved? The beta build is avialable on Creative Cloud.

Votes

Translate

Translate

Report

Report
Participant ,
Mar 18, 2024 Mar 18, 2024

Copy link to clipboard

Copied

Trying the version 24.4.0 BETA (Build 20) and it seems the 'Media' tab is no longer causing any issues, however in a timeline that's 24 minutes (made up of the same files I posted above), the program monitor is still quite laggy when adjusting the Position / Scale values. It's like the FPS of the program monitor drops significantly - similar to the video I posted above just less severe

EDIT: Please see my post below for a follow up

Votes

Translate

Translate

Report

Report
Participant ,
Mar 18, 2024 Mar 18, 2024

Copy link to clipboard

Copied

Hi Trent, this is a bit weird as whilst recording a video for you I discovered a strange behaviour.

 

If I select a clip and adjust the position values, it seems slow, jittery.

Then I click the Motion tab to see the edges and anchor point, moving this around with my mouse is still quite jittery.

However, once the edges and anchor point are visible then adjusting the position through the values itself is very smooth...

You can see what I mean through the video.

Votes

Translate

Translate

Report

Report
Community Expert ,
Mar 18, 2024 Mar 18, 2024

Copy link to clipboard

Copied

@Trent Happel 

This is quite a significant improvement. (build 20)

Votes

Translate

Translate

Report

Report
Adobe Employee ,
Mar 19, 2024 Mar 19, 2024

Copy link to clipboard

Copied

Agreed, there is still room for improvement here.

Votes

Translate

Translate

Report

Report
Participant ,
Mar 19, 2024 Mar 19, 2024

Copy link to clipboard

Copied

Seems like a developer implemented some kind of optimisation which works well but it's only active whilst the motion borders are shown, and only via the method of adjusting the number values. Now if it could just work the same with clicking and dragging the program monitor and without the borders being active!

Votes

Translate

Translate

Report

Report
Adobe Employee ,
Mar 27, 2024 Mar 27, 2024

Copy link to clipboard

Copied

You should see Direct Manipulation performance improvementson Windows in Premiere Pro 24.3, which just released. Further improvements are still under investigation.

Votes

Translate

Translate

Report

Report
Participant ,
Apr 06, 2024 Apr 06, 2024

Copy link to clipboard

Copied

Hey Trent,

 

Can I ask why aren't Adobe releasing update logs for these beta versions?

It seems like lately you guys are really trying to address issues from people but I cannot find actual change logs anywhere, and it'd be reassuring to see all the progress from these daily updates + it'd be nice to know what is being focused on

Votes

Translate

Translate

Report

Report
Adobe Employee ,
Apr 08, 2024 Apr 08, 2024

Copy link to clipboard

Copied

LATEST

Fair question. Unfortunately I do not have answer, but I have forwarded on this request.

Votes

Translate

Translate

Report

Report